Вас Приветствует Релиз-группа HQCLUB


Помощь ресурсу, очень ВАЖНО!!!



.


WELCOME
Добро пожаловать в наше интернет - сообщество!

Всех нас объединяет одна страсть - страсть к высококачественному кино. А это наш сайт. Ежедневно здесь мы публикуем десятки качественных, свежих, а порой и эксклюзивных релизов, которые Вы можете скачать совершенно бесплатно и без каких-либо регистраций. Посему рекомендуем Вам добавить HQClub себе в закладки, а также подписаться на нашу ленту новостей, чтобы всегда быть в курсе всех событий. Ну а если Вы такой же синий фил, как и мы, то милости просим на наш форум. И в заключение, попробуйте зарегистрироваться, ведь не так это и сложно и займет всего лишь пару минут! Вот увидите, Вам у нас понравится и Вы вольетесь в наш дружный коллектив! Ну а пока - осматривайтесь = )
Мы рады Вам !





Двойная жизнь Чарли Сан-Клауда / Charlie St. Cloud (2010) BDRip-AVC

Оформил: Elheym | 7 июля 2014 - 15:54:17 | Комментариев: 2 | Обращений: 939 {bookmarks_news}

http//lostpic.net/orig_images/1/d/3/1d34f4ed2d11c1981f337c8c5a0a4be5.jpg

Информация о фильме:
Название: Двойная жизнь Чарли Сан-Клауда
Оригинальное название: Charlie St. Cloud
Год выхода: 2010
Жанр: Фэнтези, драма, мелодрама
Режиссер: Бёрр Стирс
В ролях: Зак Эфрон, Аманда Крю, Чарли Тахэн, Август Прю, Донал Лог, Ким Бейсингер, Рэй Лиотта, Дэйв Франко, Мэтт Уорд, Майлз Чалмерс

О фильме: Чарли Сан-Клауд живет в тихом городке. Он преуспевает в спорте и готовится к учебе в престижном университете. Но случается трагедия - в аварии погибает его младший брат Сэм - и жизнь Чарли меняется. Он винит себя в случившемся. Прошлое не дает ему покоя.
Спустя 5 лет после трагедии в город возвращается бывшая одноклассница Чарли - Тесс. Она готовится в одиночку совершить кругосветное путешествие, и каждый день выходит в море.
Чарли влюбляется в Тесс, он полон сомнений. Что важнее - прошлое, брат, которым он так дорожит, или новое чувство, способное излечить его душу?

«Живи. Люби. Прощай»



http//rating.kinopoisk.ru/469582.gif http//tracker.0day.kiev.ua/imdb/imdb_tt1438254.gif

Релиз от - http//hqclub.net/images/hqclub.png
Автор рипа: Elheym

Выпущено: США, Канада
Продолжительность: 01:39:17
Перевод: профессиональный (полное дублирование) + оригинал (английский)
Субтитры: русские** (полные), русские (форсированые), английские (полные SDH)
Главы: присутствуют, сохранены оригинальные

Цитата:
** - Субтитры взяты с просторов интернета. Набиты по дубляжу неизвестным автором. Откорректированы мною.


Файл:
Формат: MKV
Качество: BDRip-AVC (источник: rutracker / Blu-ray Disc / 1080p)
Видео: 1024x428 (2.40:1), 23.976 fps, MPEG-4 AVC, ~2670 kbps avg, 0.254 bit/pixel
Аудио #1: 48 kHz, AC3 Dolby Digital, 3/2 (L,C,R,l,r) + LFE ch, ~448 kbps (DUB)
Аудио #2: 48 kHz, AC3 Dolby Digital, 3/2 (L,C,R,l,r) + LFE ch, ~448 kbps (ENG)
Размер: 2.47 GB
Сэмпл: скачать

http//lostpic.net/thumbs_images/9/c/3/9c3db3b76ad199d84e1d17ca2884a344.png http//lostpic.net/thumbs_images/f/7/1/f71abd22803190adfcb1b704ba70e7.png http//lostpic.net/thumbs_images/7/0/1/7013ee93c8079505c097b17a8f.png http//lostpic.net/thumbs_images/b/a/2/ba29f804192ade3e6d362f7c63ded6d8.png http//lostpic.net/thumbs_images/0/0/2/002f934ad64a589c5c38ca43d11b7f.png http//lostpic.net/thumbs_images/0/6/8/06899c3738280b5688e42280cc8058.png

"MediaInfo"

Уникальный идентификатор : 181010928296993504512971767955926837255 (0x882D6FCC052B41F3BE1890B17D206807)
Полное имя : Charlie.St.Cloud.2010.DUAL.BDRip-AVC.x264.AC3.-HQCLUB.mkv
Формат : Matroska
Версия формата : Version 2
Размер файла : 2,47 Гбайт
Продолжительность : 1 ч. 39 м.
Общий поток : 3567 Кбит/сек
Дата кодирования : UTC 2014-07-07 10:19:15
Программа кодирования : mkvmerge v5.2.0 ('I can't explain') built on Dec 18 2011 18:12:03
Библиотека кодирования : libebml v1.2.3 + libmatroska v1.3.0

Видео
Идентификатор : 1
Формат : AVC
Формат/Информация : Advanced Video Codec
Профиль формата : High@L4.1
Параметр CABAC формата : Да
Параметр ReFrames формата : 16 кадров
Идентификатор кодека : V_MPEG4/ISO/AVC
Продолжительность : 1 ч. 39 м.
Битрейт : 2670 Кбит/сек
Ширина : 1024 пикселя
Высота : 428 пикселей
Соотношение сторон : 2,40:1
Режим частоты кадров : Постоянный
Частота кадров : 23,976 кадра/сек
Цветовое пространство : YUV
Субдискретизация насыщенности : 4:2:0
Битовая глубина : 8 бит
Тип развёртки : Прогрессивная
Бит/(Пиксели*Кадры) : 0.254
Размер потока : 1,80 Гбайт (73%)
Заголовок : Двойная жизнь Чарли Сан-Клауда / Charlie St. Cloud (2010) BDRip-AVC by HQCLUB [Elheym]
Библиотека кодирования : x264 core 142 r2431 ac76440
Настройки программы : cabac=1 / ref=16 / deblock=1:-3:-2 / analyse=0x3:0x113 / me=umh / subme=11 / psy=1 / psy_rd=1.00:0.00 / mixed_ref=1 / me_range=32 / chroma_me=1 / trellis=2 / 8x8dct=1 / cqm=0 / deadzone=21,11 / fast_pskip=1 / chroma_qp_offset=-4 / threads=6 / lookahead_threads=1 / sliced_threads=0 / nr=0 / decimate=1 / interlaced=0 / bluray_compat=0 / constrained_intra=0 / bframes=14 / b_pyramid=2 / b_adapt=2 / b_bias=0 / direct=3 / weightb=1 / open_gop=0 / weightp=2 / keyint=240 / keyint_min=23 / scenecut=40 / intra_refresh=0 / rc_lookahead=40 / rc=2pass / mbtree=1 / bitrate=2670 / ratetol=1.0 / qcomp=0.60 / qpmin=10 / qpmax=69 / qpstep=4 / cplxblur=20.0 / qblur=0.5 / vbv_maxrate=50000 / vbv_bufsize=62500 / nal_hrd=none / filler=0 / ip_ratio=1.40 / aq=1:0.90
Язык : English
Default : Да
Forced : Нет

Аудио #1
Идентификатор : 2
Формат : AC-3
Формат/Информация : Audio Coding 3
Расширение режима : CM (complete main)
Параметр Endianness формата : Big
Идентификатор кодека : A_AC3
Продолжительность : 1 ч. 39 м.
Вид битрейта : Постоянный
Битрейт : 448 Кбит/сек
Каналы : 6 каналов
Расположение каналов : Front: L C R, Side: L R, LFE
Частота : 48,0 КГц
Битовая глубина : 16 бит
Метод сжатия : С потерями
Размер потока : 318 Мбайт (13%)
Заголовок : АС3 5.1 @ 448 kbps - Dub
Язык : Russian
Default : Нет
Forced : Нет

Аудио #2
Идентификатор : 3
Формат : AC-3
Формат/Информация : Audio Coding 3
Расширение режима : CM (complete main)
Параметр Endianness формата : Big
Идентификатор кодека : A_AC3
Продолжительность : 1 ч. 39 м.
Вид битрейта : Постоянный
Битрейт : 448 Кбит/сек
Каналы : 6 каналов
Расположение каналов : Front: L C R, Side: L R, LFE
Частота : 48,0 КГц
Битовая глубина : 16 бит
Метод сжатия : С потерями
Размер потока : 318 Мбайт (13%)
Заголовок : АС3 5.1 @ 448 kbps - Original
Язык : English
Default : Нет
Forced : Нет

Текст #1
Идентификатор : 4
Формат : UTF-8
Идентификатор кодека : S_TEXT/UTF8
Идентификатор кодека/Информация : UTF-8 Plain Text
Заголовок : Full
Язык : Russian
Default : Нет
Forced : Нет

Текст #2
Идентификатор : 5
Формат : UTF-8
Идентификатор кодека : S_TEXT/UTF8
Идентификатор кодека/Информация : UTF-8 Plain Text
Заголовок : Forced
Язык : Russian
Default : Нет
Forced : Нет

Текст #3
Идентификатор : 6
Формат : UTF-8
Идентификатор кодека : S_TEXT/UTF8
Идентификатор кодека/Информация : UTF-8 Plain Text
Заголовок : Full SDH
Язык : English
Default : Нет
Forced : Нет

Меню
00:00:00.000 : :Chapter 01
00:04:02.116 : :Chapter 02
00:08:40.311 : :Chapter 03
00:13:48.369 : :Chapter 04
00:17:05.691 : :Chapter 05
00:23:49.719 : :Chapter 06
00:28:39.217 : :Chapter 07
00:33:50.236 : :Chapter 08
00:37:58.484 : :Chapter 09
00:42:09.693 : :Chapter 10
00:46:30.412 : :Chapter 11
00:50:41.496 : :Chapter 12
00:57:38.580 : :Chapter 13
01:03:38.272 : :Chapter 14
01:10:30.601 : :Chapter 15
01:14:48.817 : :Chapter 16
01:17:39.571 : :Chapter 17
01:20:06.134 : :Chapter 18
01:26:06.661 : :Chapter 19
01:32:58.906 : :Chapter 20
01:39:16.742 : :Chapter 21

"x264 log"

x264 [info]: frame I:1092 Avg QP:14.04 size:100006
x264 [info]: frame P:32415 Avg QP:16.72 size: 30785
x264 [info]: frame B:109319 Avg QP:19.86 size: 8054

x264 [info]: consecutive B-frames: 2.9% 4.2% 11.4% 16.4% 16.0% 32.7% 6.9% 2.0% 2.1% 1.3% 1.3% 0.6% 0.9% 0.8% 0.5%

x264 [info]: ref P L0: 45.3% 8.6% 17.1% 6.7% 5.6% 3.5% 3.2% 1.7% 1.8% 1.3% 1.3% 1.0% 1.0% 0.8% 0.8% 0.6%
x264 [info]: ref B L0: 72.5% 11.9% 5.3% 2.7% 1.8% 1.5% 1.1% 0.7% 0.5% 0.5% 0.4% 0.4% 0.3% 0.2% 0.1%
x264 [info]: ref B L1: 92.2% 7.8%


Ссылки для скачивания:

http//bt.hqclub.net/files/ok.png Торрент: Двойная жизнь Чарли Сан-Клауда / Charlie St. Cloud (2010) BDRip-AVC

Лучшая онлайн игра!


Публикация материалов сайта на сторонних ресурсах возможна только в неизменном виде.


Обсудить релиз на форуме

Вас также может заинтересовать:


  • 5
 (Голосов: 3)


Распечатать новость на принтере Фэнтези, Драма, Мелодрама

КОММЕНТАРИИ

 №1. ru4lan

Статус: Кинокритик | Новостей: 0 | Комментариев: 2736
ru4lan спасибо!
~~~

7.07.2014 - 18:24   цитировать  

 №2. Elheym

Статус: Стажер | Новостей: 320 | Комментариев: 70
Всегда пожалуйта)
~~~

8.07.2014 - 16:21   цитировать