Вас Приветствует Релиз-группа HQCLUB


Помощь ресурсу, очень ВАЖНО!!!



.


WELCOME
Добро пожаловать в наше интернет - сообщество!

Всех нас объединяет одна страсть - страсть к высококачественному кино. А это наш сайт. Ежедневно здесь мы публикуем десятки качественных, свежих, а порой и эксклюзивных релизов, которые Вы можете скачать совершенно бесплатно и без каких-либо регистраций. Посему рекомендуем Вам добавить HQClub себе в закладки, а также подписаться на нашу ленту новостей, чтобы всегда быть в курсе всех событий. Ну а если Вы такой же синий фил, как и мы, то милости просим на наш форум. И в заключение, попробуйте зарегистрироваться, ведь не так это и сложно и займет всего лишь пару минут! Вот увидите, Вам у нас понравится и Вы вольетесь в наш дружный коллектив! Ну а пока - осматривайтесь = )
Мы рады Вам !





Медея / Medea (1969) BDRip-AVC

Оформил: Elheym | 27 июля 2014 - 19:49:21 | Комментариев: 4 | Обращений: 798 {bookmarks_news}

http//lostpic.net/orig_images/8/b/8/8b8fe4da4052e6ae3ab56e63c5b921eb.jpg

Информация о фильме:
Название: Медея
Оригинальное название: Medea
Год выхода: 1969
Жанр: фэнтези, драма
Режиссер: Пьер Паоло Пазолини / Pier Paolo Pasolini
В ролях: Мария Каллас, Массимо Джиротти, Лоран Терзиефф, Джузеппе Джентиле, Маргарет Клеманти, Пол Джабара, Герард Вайсс, Серджо Трамонти, Луиджи Барбини, Джан Паоло Дургар

О фильме: В фильме мало места уделено «затертому» сюжету об «аргонавтах», можно сказать упоминается об этом вскользь. Причем аргонавты показаны отнюдь не романтично героически, а скорее напоминают наемников-мародеров. Большая же часть фильма посвящена второй половине жизни Медеи и Ясона: встреча, любовь и расставание. Брошенная, и даже изгнанная Медея не может простить коварства своего бывшего возлюбленного, променявшего ее ради свадьбы с Глоцией, дочерью короля Креона. Она начинает мщение с помощью своих магических чар.

«It's a movie about a woman who beheads her brother, stabs her children, and sends her lover's wife up in flames. For Maria Callas, it's a natural»



http//rating.kinopoisk.ru/39873.gif http//lostpic.net/orig_images/5/4/a/54a5604e086ff254d56a4b0d53750f25.gif

Релиз от - http//hqclub.net/images/hqclub.png
Автор рипа: Elheym

Выпущено: Италия, Франция, Германия (ФРГ)
Продолжительность: 01:51:01
Перевод 1: Профессиональный (многоголосый, закадровый), Кармен Видео
Перевод 2: Профессиональный (двухголосый, закадровый)
Оригинальная аудио дорожка: итальянский
Субтитры: русские (полные), английские (полные)
Главы: присутствуют, сохранены оригинальные

Файл:
Формат: MKV
Качество: BDRip-AVC (источник: http//i28.fastpic.ru/big/2011/1013/a8/a3d28e80c9544f4c572189fc892ea8.gif / Blu-Ray Remux / 1080p)
Видео: 1024x554 (1.85:1), 23.976 fps, MPEG-4 AVC, ~2974 kbps avg, 0.219 bit/pixel
Аудио #1: 48 kHz, AC3 Dolby Digital, 2/0 (L,R,), ~192 kbps (MVO.KARMEN-VIDEO)
Аудио #2: 48 kHz, AC3 Dolby Digital, 2/0 (L,R,), ~192 kbps (DVO)
Аудио #3: 48 kHz, AC3 Dolby Digital, 2/0 (L,R,), ~192 kbps (ENG.DUB)
Аудио #4: 48 kHz, AC3 Dolby Digital, 2/0 (L,R,), ~192 kbps (ITA)
Размер: 2.90 GB
Сэмпл: скачать

http//lostpic.net/thumbs_images/0/c/e/0ce64f8c3d0c6700fcff3d0ef22ae50e.png http//lostpic.net/thumbs_images/2/f/5/2fed32b4e1bf2bb2affadfd09b6aa8.png http//lostpic.net/thumbs_images/9/f/f/9ff8d3b979b39ee50940420229d81e.png http//lostpic.net/thumbs_images/7/0/6/706542fbcaf58da97e9c09e33bc73d6b.png http//lostpic.net/thumbs_images/e/d/1/ed12f0ebbd14bbd2a6fb0de39bbd8197.png http//lostpic.net/thumbs_images/f/a/9/fa9eb7965ba06731e2ce0b296d6fff6e.png

"MediaInfo"

Уникальный идентификатор : 189857653063609487952547394027248919325 (0x8ED54100F13CB525878FDD910997A31D)
Полное имя : Medea.1969.QUADRO.BDRip-AVC.x264.AC3.-HQCLUB.mkv
Формат : Matroska
Версия формата : Version 2
Размер файла : 2,90 Гбайт
Продолжительность : 1 ч. 51 м.
Общий поток : 3744 Кбит/сек
Дата кодирования : UTC 2014-07-27 14:01:46
Программа кодирования : mkvmerge v5.2.0 ('I can't explain') built on Dec 18 2011 18:12:03
Библиотека кодирования : libebml v1.2.3 + libmatroska v1.3.0

Видео
Идентификатор : 1
Формат : AVC
Формат/Информация : Advanced Video Codec
Профиль формата : High@L4.1
Параметр CABAC формата : Да
Параметр ReFrames формата : 14 кадров
Идентификатор кодека : V_MPEG4/ISO/AVC
Продолжительность : 1 ч. 51 м.
Битрейт : 2974 Кбит/сек
Ширина : 1024 пикселя
Высота : 554 пикселя
Соотношение сторон : 1,85:1
Режим частоты кадров : Постоянный
Частота кадров : 23,976 кадра/сек
Цветовое пространство : YUV
Субдискретизация насыщенности : 4:2:0
Битовая глубина : 8 бит
Тип развёртки : Прогрессивная
Бит/(Пиксели*Кадры) : 0.219
Размер потока : 2,25 Гбайт (77%)
Заголовок : Медея / Medea (1969) BDRip-AVC by HQCLUB [Elheym]
Библиотека кодирования : x264 core 142 r2431 ac76440
Настройки программы : cabac=1 / ref=14 / deblock=1:-3:-2 / analyse=0x3:0x113 / me=umh / subme=11 / psy=1 / psy_rd=1.00:0.00 / mixed_ref=1 / me_range=32 / chroma_me=1 / trellis=2 / 8x8dct=1 / cqm=0 / deadzone=21,11 / fast_pskip=1 / chroma_qp_offset=-4 / threads=6 / lookahead_threads=1 / sliced_threads=0 / nr=0 / decimate=1 / interlaced=0 / bluray_compat=0 / constrained_intra=0 / bframes=16 / b_pyramid=2 / b_adapt=2 / b_bias=0 / direct=3 / weightb=1 / open_gop=0 / weightp=2 / keyint=240 / keyint_min=23 / scenecut=40 / intra_refresh=0 / rc_lookahead=40 / rc=2pass / mbtree=1 / bitrate=2974 / ratetol=1.0 / qcomp=0.60 / qpmin=10 / qpmax=69 / qpstep=4 / cplxblur=20.0 / qblur=0.5 / vbv_maxrate=50000 / vbv_bufsize=62500 / nal_hrd=none / filler=0 / ip_ratio=1.40 / aq=1:0.90
Язык : Italian
Default : Да
Forced : Нет

Аудио #1
Идентификатор : 2
Формат : AC-3
Формат/Информация : Audio Coding 3
Расширение режима : CM (complete main)
Параметр Endianness формата : Big
Идентификатор кодека : A_AC3
Продолжительность : 1 ч. 51 м.
Вид битрейта : Постоянный
Битрейт : 192 Кбит/сек
Каналы : 2 канала
Расположение каналов : Front: L R
Частота : 48,0 КГц
Битовая глубина : 16 бит
Метод сжатия : С потерями
Размер потока : 152 Мбайт (5%)
Заголовок : АС3 2.0 @ 192 kbps - MVO
Язык : Russian
Default : Нет
Forced : Нет

Аудио #2
Идентификатор : 3
Формат : AC-3
Формат/Информация : Audio Coding 3
Расширение режима : CM (complete main)
Параметр Endianness формата : Big
Идентификатор кодека : A_AC3
Продолжительность : 1 ч. 51 м.
Вид битрейта : Постоянный
Битрейт : 192 Кбит/сек
Каналы : 2 канала
Расположение каналов : Front: L R
Частота : 48,0 КГц
Битовая глубина : 16 бит
Метод сжатия : С потерями
Размер потока : 152 Мбайт (5%)
Заголовок : АС3 2.0 @ 192 kbps - DVO
Язык : Russian
Default : Нет
Forced : Нет

Аудио #3
Идентификатор : 4
Формат : AC-3
Формат/Информация : Audio Coding 3
Расширение режима : CM (complete main)
Параметр Endianness формата : Big
Идентификатор кодека : A_AC3
Продолжительность : 1 ч. 51 м.
Вид битрейта : Постоянный
Битрейт : 192 Кбит/сек
Каналы : 2 канала
Расположение каналов : Front: L R
Частота : 48,0 КГц
Битовая глубина : 16 бит
Метод сжатия : С потерями
Размер потока : 152 Мбайт (5%)
Заголовок : АС3 2.0 @ 192 kbps - Dub
Язык : English
Default : Нет
Forced : Нет

Аудио #4
Идентификатор : 5
Формат : AC-3
Формат/Информация : Audio Coding 3
Расширение режима : CM (complete main)
Параметр Endianness формата : Big
Идентификатор кодека : A_AC3
Продолжительность : 1 ч. 51 м.
Вид битрейта : Постоянный
Битрейт : 192 Кбит/сек
Каналы : 2 канала
Расположение каналов : Front: L R
Частота : 48,0 КГц
Битовая глубина : 16 бит
Метод сжатия : С потерями
Размер потока : 152 Мбайт (5%)
Заголовок : АС3 2.0 @ 192 kbps - Original
Язык : Italian
Default : Нет
Forced : Нет

Текст #1
Идентификатор : 6
Формат : UTF-8
Идентификатор кодека : S_TEXT/UTF8
Идентификатор кодека/Информация : UTF-8 Plain Text
Заголовок : Full
Язык : Russian
Default : Нет
Forced : Нет

Текст #2
Идентификатор : 7
Формат : UTF-8
Идентификатор кодека : S_TEXT/UTF8
Идентификатор кодека/Информация : UTF-8 Plain Text
Заголовок : Full
Язык : English
Default : Нет
Forced : Нет

Меню
00:00:00.000 : :Chapter 01
00:08:58.538 : :Chapter 02
00:24:16.454 : :Chapter 03
00:36:55.213 : :Chapter 04
00:49:20.958 : :Chapter 05
00:55:10.306 : :Chapter 06
01:03:40.817 : :Chapter 07
01:10:58.253 : :Chapter 08
01:17:55.295 : :Chapter 09
01:23:46.020 : :Chapter 10
01:30:58.453 : :Chapter 11
01:41:26.705 : :Chapter 12

"x264 log"

x264 [info]: frame I:1025 Avg QP:16.92 size: 88324
x264 [info]: frame P:29511 Avg QP:19.79 size: 34346
x264 [info]: frame B:129186 Avg QP:22.08 size: 10623

x264 [info]: consecutive B-frames: 1.3% 2.1% 5.5% 11.5% 12.5% 35.1% 9.8% 5.9% 4.8% 4.0% 1.7% 2.1% 1.0% 0.7% 1.1% 0.5% 0.3%

x264 [info]: ref P L0: 35.9% 10.4% 17.9% 7.5% 6.7% 4.7% 4.4% 2.3% 2.3% 1.8% 1.8% 1.4% 1.5% 1.3% 0.3% 0.0%
x264 [info]: ref B L0: 64.3% 12.9% 6.8% 3.9% 2.9% 2.5% 1.9% 1.2% 1.0% 1.0% 0.8% 0.5% 0.2%
x264 [info]: ref B L1: 91.7% 8.3%


Ссылки для скачивания:

http//bt.hqclub.net/files/ok.png Торрент: Медея / Medea (1969) BDRip-AVC

Лучшая онлайн игра!


Публикация материалов сайта на сторонних ресурсах возможна только в неизменном виде.


Обсудить релиз на форуме

Вас также может заинтересовать:


  • 3
 (Голосов: 3)


Распечатать новость на принтере Фэнтези, Драма

КОММЕНТАРИИ

 №1. zeffc63

Статус: Кинокритик | Новостей: 0 | Комментариев: 1096
zeffc63 Еле выдержал пол часа просмотра.. Не ожидал такого
~~~

28.07.2014 - 01:13   цитировать  

 №2. ru4lan

Статус: Кинокритик | Новостей: 0 | Комментариев: 2736
ru4lan zeffc63, совсем шлак?
~~~

28.07.2014 - 11:26   цитировать  

 №3. zeffc63

Статус: Кинокритик | Новостей: 0 | Комментариев: 1096
zeffc63 ru4lan. не понятно о чем, диалога почти нет.. Даже не очень хороший фильм, все равно смотрю до конца, а этот не выдержал, бросил..
~~~

28.07.2014 - 19:03   цитировать  

 №4. ru4lan

Статус: Кинокритик | Новостей: 0 | Комментариев: 2736
ru4lan zeffc63, спасибо. если уж ты не выдержал, то я уж точно at
~~~

29.07.2014 - 00:49   цитировать