Вас Приветствует Релиз-группа HQCLUB


Помощь ресурсу, очень ВАЖНО!!!



.


WELCOME
Добро пожаловать в наше интернет - сообщество!

Всех нас объединяет одна страсть - страсть к высококачественному кино. А это наш сайт. Ежедневно здесь мы публикуем десятки качественных, свежих, а порой и эксклюзивных релизов, которые Вы можете скачать совершенно бесплатно и без каких-либо регистраций. Посему рекомендуем Вам добавить HQClub себе в закладки, а также подписаться на нашу ленту новостей, чтобы всегда быть в курсе всех событий. Ну а если Вы такой же синий фил, как и мы, то милости просим на наш форум. И в заключение, попробуйте зарегистрироваться, ведь не так это и сложно и займет всего лишь пару минут! Вот увидите, Вам у нас понравится и Вы вольетесь в наш дружный коллектив! Ну а пока - осматривайтесь = )
Мы рады Вам !





Малефисента / Maleficent (2014) BDRip-AVC

Оформил: Elheym | 14 сентября 2014 - 13:25:49 | Комментариев: 1 | Обращений: 2987 {bookmarks_news}

http//lostpic.net/orig_images/d/d/0/dd0181c1905c2e71517cc3ef9d765d92.jpg

Информация о фильме:
Название: Малефисента
Оригинальное название: Maleficent
Год выхода: 2014
Жанр: фэнтези, семейный, мелодрама, приключения
Режиссер: Роберт Стромберг / Robert Stromberg
В ролях: Анджелина Джоли, Эль Фаннинг, Шарлто Копли, Сэм Райли, Имелда Стонтон, Джуно Темпл, Лесли Мэнвилл, Брентон Туэйтс, Кеннет Крэнэм, Изобель Моллой

О фильме: Юная волшебница Малефисента вела уединенную жизнь в зачарованном лесу, окруженная сказочными существами, но однажды все изменилось… В её мир вторглись люди, которые принесли с собой разрушение и хаос, и Малефисенте пришлось встать на защиту своих подданных, призвав на помощь могущественные тёмные силы. В пылу борьбы Малефисента наложила страшное заклятие на новорожденную дочь короля, прекрасную Аврору. Но, наблюдая за тем, как растет маленькая принцесса, Малефисента начинает сомневаться в правильности своего поступка - ведь, возможно, именно Аврора может вдохнуть новую жизнь в волшебное лесное царство.

«Не верьте сказкам»



http//rating.kinopoisk.ru/68.gif http//tracker.0day.kiev.ua/imdb/imdb_tt1587310.gif

Релиз от - http//hqclub.net/images/hqclub.png
Автор рипа: Elheym

Выпущено: США, Великобритания, Roth Films, Walt Disney Pictures
Продолжительность: 01:37:28
Перевод: Профессиональный (полное дублирование), BD EUR
Оригинальная аудио дорожка: английский
Субтитры: русские (полные), английские (полные, полные SDH)
Главы: присутствуют, сохранены оригинальные

Файл:
Формат: MKV
Качество: BDRip-AVC (источник: http//i28.fastpic.ru/big/2011/1013/a8/a3d28e80c9544f4c572189fc892ea8.gif / Blu-ray EUR / 1080p)
Видео: 1152x480 (2.40:1), 23.976 fps, MPEG-4 AVC, ~4417 kbps avg, 0.333 bit/pixel
Аудио #1: AC3 Dolby Digital, 3/2 (L,C,R,l,r) + LFE ch, ~448 kbps (DUB)
Аудио #2: AC3 Dolby Digital, 3/2 (L,C,R,l,r) + LFE ch, ~448 kbps (ENG)
Размер: 3.69 GB
Сэмпл: скачать

http//lostpic.net/thumbs_images/4/1/7/4178fa4a7195a78ce0b456ce5247cb40.png http//lostpic.net/thumbs_images/c/b/8/cb8c6d6de0297b66c1a187fda346f87c.png http//lostpic.net/thumbs_images/4/f/8/4f8ade8ceb667cc3e746e378f71636.png http//lostpic.net/thumbs_images/6/b/1/6b139af855ec2b0024718baf65fac5.png http//lostpic.net/thumbs_images/5/d/8/5d8f787de6a02a14f83f779ed88add.png http//lostpic.net/thumbs_images/7/6/d/76dff5ddb7de2e21789b8021f0a7a852.png

"MediaInfo"

Уникальный идентификатор : 248091849678085620615771339005426362754 (0xBAA4C091D7148682ABA043AC8D936982)
Полное имя : Maleficent.2014.DUAL.BDRip-AVC.x264.AC3.-HQCLUB.mkv
Формат : Matroska
Версия формата : Version 2
Размер файла : 3,69 Гбайт
Продолжительность : 1 ч. 37 м.
Общий поток : 5421 Кбит/сек
Дата кодирования : UTC 2014-09-14 08:35:12
Программа кодирования : mkvmerge v5.2.0 ('I can't explain') built on Dec 18 2011 18:12:03
Библиотека кодирования : libebml v1.2.3 + libmatroska v1.3.0

Видео
Идентификатор : 1
Формат : AVC
Формат/Информация : Advanced Video Codec
Профиль формата : High@L4.1
Параметр CABAC формата : Да
Параметр ReFrames формата : 12 кадров
Идентификатор кодека : V_MPEG4/ISO/AVC
Продолжительность : 1 ч. 37 м.
Битрейт : 4417 Кбит/сек
Ширина : 1152 пикселя
Высота : 480 пикселей
Соотношение сторон : 2,40:1
Режим частоты кадров : Постоянный
Частота кадров : 23,976 кадра/сек
Цветовое пространство : YUV
Субдискретизация насыщенности : 4:2:0
Битовая глубина : 8 бит
Тип развёртки : Прогрессивная
Бит/(Пиксели*Кадры) : 0.333
Размер потока : 3,01 Гбайт (81%)
Заголовок : Малефисента / Maleficent (2014) BDRip-AVC by HQCLUB [Elheym]
Библиотека кодирования : x264 core 142 r2453 ea0ca51
Настройки программы : cabac=1 / ref=12 / deblock=1:-3:-2 / analyse=0x3:0x113 / me=umh / subme=11 / psy=1 / psy_rd=1.00:0.00 / mixed_ref=1 / me_range=32 / chroma_me=1 / trellis=2 / 8x8dct=1 / cqm=0 / deadzone=21,11 / fast_pskip=0 / chroma_qp_offset=-4 / threads=6 / lookahead_threads=1 / sliced_threads=0 / nr=0 / decimate=1 / interlaced=0 / bluray_compat=0 / constrained_intra=0 / bframes=11 / b_pyramid=2 / b_adapt=2 / b_bias=0 / direct=3 / weightb=1 / open_gop=0 / weightp=2 / keyint=240 / keyint_min=23 / scenecut=40 / intra_refresh=0 / rc_lookahead=50 / rc=crf / mbtree=1 / crf=14.4 / qcomp=0.60 / qpmin=0 / qpmax=69 / qpstep=4 / vbv_maxrate=50000 / vbv_bufsize=62500 / crf_max=0.0 / nal_hrd=none / filler=0 / ip_ratio=1.40 / aq=2:0.90
Язык : English
Default : Да
Forced : Нет

Аудио #1
Идентификатор : 2
Формат : AC-3
Формат/Информация : Audio Coding 3
Расширение режима : CM (complete main)
Параметр Endianness формата : Big
Идентификатор кодека : A_AC3
Продолжительность : 1 ч. 37 м.
Вид битрейта : Постоянный
Битрейт : 448 Кбит/сек
Каналы : 6 каналов
Расположение каналов : Front: L C R, Side: L R, LFE
Частота : 48,0 КГц
Битовая глубина : 16 бит
Метод сжатия : С потерями
Размер потока : 312 Мбайт (8%)
Заголовок : АС3 5.1 @ 448 kbps - Dub, EUR
Язык : Russian
Default : Нет
Forced : Нет

Аудио #2
Идентификатор : 3
Формат : AC-3
Формат/Информация : Audio Coding 3
Расширение режима : CM (complete main)
Параметр Endianness формата : Big
Идентификатор кодека : A_AC3
Продолжительность : 1 ч. 37 м.
Вид битрейта : Постоянный
Битрейт : 448 Кбит/сек
Каналы : 6 каналов
Расположение каналов : Front: L C R, Side: L R, LFE
Частота : 48,0 КГц
Битовая глубина : 16 бит
Метод сжатия : С потерями
Размер потока : 312 Мбайт (8%)
Заголовок : АС3 5.1 @ 448 kbps - Original
Язык : English
Default : Нет
Forced : Нет

Текст #1
Идентификатор : 4
Формат : UTF-8
Идентификатор кодека : S_TEXT/UTF8
Идентификатор кодека/Информация : UTF-8 Plain Text
Заголовок : Full
Язык : Russian
Default : Нет
Forced : Нет

Текст #2
Идентификатор : 5
Формат : UTF-8
Идентификатор кодека : S_TEXT/UTF8
Идентификатор кодека/Информация : UTF-8 Plain Text
Заголовок : Full
Язык : English
Default : Нет
Forced : Нет

Текст #3
Идентификатор : 6
Формат : UTF-8
Идентификатор кодека : S_TEXT/UTF8
Идентификатор кодека/Информация : UTF-8 Plain Text
Заголовок : Full SDH
Язык : English
Default : Нет
Forced : Нет

Меню
00:00:00.000 : :Chapter 01
00:03:00.597 : :Chapter 02
00:08:10.948 : :Chapter 03
00:14:00.756 : :Chapter 04
00:19:10.607 : :Chapter 05
00:25:59.057 : :Chapter 06
00:33:09.737 : :Chapter 07
00:38:30.808 : :Chapter 08
00:43:21.140 : :Chapter 09
00:46:56.104 : :Chapter 10
00:51:11.943 : :Chapter 11
00:54:18.797 : :Chapter 12
00:58:37.722 : :Chapter 13
01:01:58.047 : :Chapter 14
01:05:09.989 : :Chapter 15
01:09:56.775 : :Chapter 16
01:15:40.619 : :Chapter 17
01:17:43.659 : :Chapter 18
01:25:44.931 : :Chapter 19
01:28:38.646 : :Chapter 20
01:37:27.842 : :Chapter 21

"x264 log"

x264 [info]: frame I:1232 Avg QP:10.72 size:181563
x264 [info]: frame P:29761 Avg QP:14.66 size: 57152
x264 [info]: frame B:109222 Avg QP:18.77 size: 12651

x264 [info]: consecutive B-frames: 2.1% 2.3% 8.3% 19.8% 18.2% 32.4% 9.0% 1.8% 2.6% 1.3% 1.5% 0.8%

x264 [info]: ref P L0: 46.7% 10.5% 17.4% 6.8% 5.1% 3.4% 3.1% 1.7% 1.6% 1.3% 1.2% 1.1% 0.2% 0.0%
x264 [info]: ref B L0: 78.6% 10.6% 4.5% 2.1% 1.3% 1.0% 0.7% 0.5% 0.4% 0.3% 0.1%
x264 [info]: ref B L1: 92.8% 7.2%


Ссылки для скачивания:

http//bt.hqclub.net/files/ok.png Торрент: Малефисента / Maleficent (2014) BDRip-AVC

Лучшая онлайн игра!


Публикация материалов сайта на сторонних ресурсах возможна только в неизменном виде.


Обсудить релиз на форуме

Вас также может заинтересовать:


  • 5
 (Голосов: 4)


Распечатать новость на принтере Фэнтези, Семейный, Мелодрама, Приключения

КОММЕНТАРИИ

 №1. ru4lan

Статус: Кинокритик | Новостей: 0 | Комментариев: 2736
ru4lan великоват для меня размер
~~~

15.09.2014 - 00:45   цитировать