Вас Приветствует Релиз-группа HQCLUB


Помощь ресурсу, очень ВАЖНО!!!



.


WELCOME
Добро пожаловать в наше интернет - сообщество!

Всех нас объединяет одна страсть - страсть к высококачественному кино. А это наш сайт. Ежедневно здесь мы публикуем десятки качественных, свежих, а порой и эксклюзивных релизов, которые Вы можете скачать совершенно бесплатно и без каких-либо регистраций. Посему рекомендуем Вам добавить HQClub себе в закладки, а также подписаться на нашу ленту новостей, чтобы всегда быть в курсе всех событий. Ну а если Вы такой же синий фил, как и мы, то милости просим на наш форум. И в заключение, попробуйте зарегистрироваться, ведь не так это и сложно и займет всего лишь пару минут! Вот увидите, Вам у нас понравится и Вы вольетесь в наш дружный коллектив! Ну а пока - осматривайтесь = )
Мы рады Вам !





Коллекционер 2 / The Collection [US-Transfer] (2012) BDRip 720p

Оформил: Sky™ | 30 апреля 2013 - 16:41:48 | Комментариев: 4 | Обращений: 1482 {bookmarks_news}

http//lostpic.net/images/274694520bb955f982ae92724592af9d.png

Информация о фильме:
Название: Коллекционер 2
Оригинальное название: The Collection
Год выхода: 2012
Жанр: ужасы, боевик, триллер
Режиссер: Маркус Данстэн
В ролях: Джош Стюарт, Эмма Фитцпатрик, Кристофер МакДональд, Ли Тергесен, Тим Гриффин, Андре Ройо, Рэндолл Арчер, Шеннон Кэйн, Брэндон, Молале, Эрин Вэй

О фильме: Бывалому медвежатнику Аркину чудесным образом удалось выбраться из ловушек, расставленных по дому загадочным маньяком Коллекционером. Аркин был уверен, что он никогда в жизни больше не встретится с Коллекциoнером, но cудьба распоряжается иначе.

«Не попади в его коллекцию»



http//rating.kinopoisk.ru/1252.gif http//toponlinekino.ru/imdb/tt17227.png

Релиз от - http//hqclub.net/images/hqclub.png
Автор рипа: Sky™

Выпущено: США (Fortress Features, Liddell Entertainment)
Продолжительность: 01:21:58
Перевод: Профессиональный (полное дублирование) BD RUS + Оригинальная звуковая дорожка (Английская)
Субтитры: Русские, Английские (2 вида) (*.srt, отключаемые)

Файл:
Формат: mkv
Качество: BDRip (источник: arxivariys / BDRemux [US-Transfer] / 1080p)
Видео: 1280x544 (2.35:1), 23.976 fps, X264@L4.1 ~3888 kbps avg, 0.233 bit/pixel
Аудио #1: 48 kHz, AC3 Dolby Digital, 3/2 (L,C,R,l,r) + LFE ch, ~640 kbps avg (RUS) BD RUS
Аудио #2: 48 kHz, AC3 Dolby Digital, 3/2 (L,C,R,l,r) + LFE ch, ~640 kbps avg (ENG)
Размер: 3095.97 Mb
http//lostpic.net/images/1b899dddff9c84e7020a856612f5c646.png

http//lostpic.net/thumbs/479c5219bb4f50ad795abcb71ed8b2.png http//lostpic.net/thumbs/f4f560e246d963900095b526c44ac0dc.png http//lostpic.net/thumbs/4c1bc0e07cadf3e04760c869db4ab170.png http//lostpic.net/thumbs/d8ca9bb075e78c7d3dd064a30eec05ce.png http//lostpic.net/thumbs/d987437c85311bf59c6f1031e1df6ad4.png http//lostpic.net/thumbs/35c88351993b421df7d071163f5a92ed.png http//lostpic.net/thumbs/8b61fb284587d569b9813142fc.png http//lostpic.net/thumbs/d5dc10556afe065dbd216ebe0f051f1f.png

MediaINFO
[HTML]Полное имя : Kollekcioner.2.US.2012.BDRip.720p.H264.AC3.-HQCLUB.mkv
Формат : Matroska
Версия формата : Version 2
Размер файла : 3,02 Гбайт
Продолжительность : 1 ч. 22 м.
Общий поток : 5273 Кбит/сек
Дата кодирования : UTC 2013-04-30 12:08:02
Программа кодирования : mkvmerge v5.2.1 ('A Far Off Place') built on Jan 2 2012 23:21:10
Библиотека кодирования : libebml v1.2.3 + libmatroska v1.3.0

Видео
Идентификатор : 1
Формат : AVC
Формат/Информация : Advanced Video Codec
Профиль формата : High@L4.1
Параметр CABAC формата : Да
Параметр ReFrames формата : 4 кадра
Идентификатор кодека : V_MPEG4/ISO/AVC
Продолжительность : 1 ч. 22 м.
Битрейт : 3888 Кбит/сек
Ширина : 1280 пикселей
Высота : 544 пикселя
Соотношение сторон : 2,35:1
Режим частоты кадров : Постоянный
Частота кадров : 23,976 кадра/сек
Цветовое пространство : YUV
Субдискретизация насыщенности : 4:2:0
Битовая глубина : 8 бит
Тип развёртки : Прогрессивная
Бит/(Пиксели*Кадры) : 0.233
Размер потока : 2,23 Гбайт (74%)
Заголовок : Коллекционер 2 / The Collection [US-Transfer] (2012) BDRip 720p | HQCLUB
Библиотека кодирования : x264 core 120 r2146 bcd41db
Настройки программы : cabac=1 / ref=4 / deblock=1:-3:-2 / analyse=0x3:0x113 / me=umh / subme=11 / psy=1 / psy_rd=1.00:0.00 / mixed_ref=1 / me_range=48 / chroma_me=1 / trellis=2 / 8x8dct=1 / cqm=0 / deadzone=21,11 / fast_pskip=1 / chroma_qp_offset=-4 / threads=12 / sliced_threads=0 / nr=0 / decimate=1 / interlaced=0 / bluray_compat=0 / constrained_intra=0 / bframes=11 / b_pyramid=2 / b_adapt=2 / b_bias=0 / direct=1 / weightb=1 / open_gop=0 / weightp=2 / keyint=240 / keyint_min=24 / scenecut=40 / intra_refresh=0 / rc_lookahead=40 / rc=crf / mbtree=0 / crf=18.0 / qcomp=0.60 / qpmin=0 / qpmax=69 / qpstep=4 / vbv_maxrate=62500 / vbv_bufsize=50000 / crf_max=0.0 / nal_hrd=none / ip_ratio=1.40 / pb_ratio=1.30 / aq=1:0.70
Язык : English
Default : Да
Forced : Нет

Аудио #1
Идентификатор : 2
Формат : AC-3
Формат/Информация : Audio Coding 3
Расширение режима : CM (complete main)
Параметр Endianness формата : Big
Идентификатор кодека : A_AC3
Продолжительность : 1 ч. 22 м.
Вид битрейта : Постоянный
Битрейт : 640 Кбит/сек
Каналы : 6 каналов
Расположение каналов : Front: L C R, Side: L R, LFE
Частота : 48,0 КГц
Битовая глубина : 16 бит
Метод сжатия : С потерями
Размер потока : 376 Мбайт (12%)
Заголовок : Дубляж (BD RUS) AC3 5.1 @ 640 kbps
Язык : Russian
Default : Да
Forced : Нет

Аудио #2
Идентификатор : 3
Формат : AC-3
Формат/Информация : Audio Coding 3
Расширение режима : CM (complete main)
Параметр Endianness формата : Big
Идентификатор кодека : A_AC3
Продолжительность : 1 ч. 22 м.
Вид битрейта : Постоянный
Битрейт : 640 Кбит/сек
Каналы : 6 каналов
Расположение каналов : Front: L C R, Side: L R, LFE
Частота : 48,0 КГц
Битовая глубина : 16 бит
Метод сжатия : С потерями
Размер потока : 376 Мбайт (12%)
Заголовок : Оригинал AC3 5.1 @ 640 kbps
Язык : English
Default : Нет
Forced : Нет

Текст #1
Идентификатор : 4
Формат : UTF-8
Идентификатор кодека : S_TEXT/UTF8
Идентификатор кодека/Информация : UTF-8 Plain Text
Заголовок : Full
Язык : Russian
Default : Да
Forced : Нет

Текст #2
Идентификатор : 5
Формат : UTF-8
Идентификатор кодека : S_TEXT/UTF8
Идентификатор кодека/Информация : UTF-8 Plain Text
Заголовок : Full
Язык : English
Default : Нет
Forced : Нет

Текст #3
Идентификатор : 6
Формат : UTF-8
Идентификатор кодека : S_TEXT/UTF8
Идентификатор кодека/Информация : UTF-8 Plain Text
Заголовок : SDH
Язык : English
Default : Нет
Forced : Нет

Меню
00:00:00.000 : :Chapter 01
00:09:29.485 : :Chapter 02
00:15:30.471 : :Chapter 03
00:24:00.856 : :Chapter 04
00:33:32.927 : :Chapter 05
00:42:16.742 : :Chapter 06
00:49:19.998 : :Chapter 07
00:54:59.421 : :Chapter 08
01:01:23.346 : :Chapter 09
01:06:37.368 : :Chapter 10
01:10:40.611 : :Chapter 11
01:13:54.054 : :Chapter 12[/HTML]

x264 log
[HTML]-[NoImage] x264 [info]: frame I:1069 Avg QP:15.22 size: 81576
-[NoImage] x264 [info]: frame P:28975 Avg QP:16.49 size: 34364
-[NoImage] x264 [info]: frame B:87892 Avg QP:19.49 size: 15639
-[NoImage] x264 [info]: consecutive B-frames: 5.1% 3.4% 10.3% 19.2% 15.6% 36.5% 5.0% 1.5% 1.4% 0.9% 0.7% 0.4%
-[NoImage] x264 [info]: mb I I16..4: 12.4% 75.2% 12.4%
-[NoImage] x264 [info]: mb P I16..4: 2.7% 17.5% 1.9% P16..4: 22.6% 28.6% 8.3% 0.0% 0.0% skip:18.3%
-[NoImage] x264 [info]: mb B I16..4: 0.4% 2.5% 0.2% B16..8: 34.5% 19.3% 2.9% direct: 6.3% skip:33.9% L0:42.6% L1:46.5% BI:10.9%
-[NoImage] x264 [info]: 8x8 transform intra:79.2% inter:67.1%
-[NoImage] x264 [info]: coded y,uvDC,uvAC intra: 78.4% 82.2% 73.8% inter: 24.3% 31.1% 18.6%
-[NoImage] x264 [info]: i16 v,h,dc,p: 53% 9% 7% 31%
-[NoImage] x264 [info]: i8 v,h,dc,ddl,ddr,vr,hd,vl,hu: 9% 6% 8% 10% 14% 14% 13% 12% 13%
-[NoImage] x264 [info]: i4 v,h,dc,ddl,ddr,vr,hd,vl,hu: 12% 7% 10% 9% 14% 13% 12% 11% 13%
-[NoImage] x264 [info]: i8c dc,h,v,p: 48% 19% 15% 17%
-[NoImage] x264 [info]: Weighted P-Frames: Y:5.2% UV:3.3%
-[NoImage] x264 [info]: ref P L0: 54.6% 7.8% 24.5% 11.1% 1.9% 0.1%
-[NoImage] x264 [info]: ref B L0: 85.7% 11.8% 2.6%
-[NoImage] x264 [info]: ref B L1: 91.7% 8.3%[/HTML]


Ссылки для скачивания:

http//bt.hqclub.net/files/ok.png Торрент: Коллекционер 2 / The Collection [US-Transfer] (2012) BDRip 720p

Лучшая онлайн игра!


Публикация материалов сайта на сторонних ресурсах возможна только в неизменном виде.


Обсудить релиз на форуме

Вас также может заинтересовать:


  • 3
 (Голосов: 3)


Распечатать новость на принтере Ужасы, Боевик, Триллер
Обновлено: 2.05.2013 - 16:47

КОММЕНТАРИИ

 №1. ru4lan

Статус: Кинокритик | Новостей: 0 | Комментариев: 2736
ru4lan тяжеловата матроска
~~~

1.05.2013 - 20:45   цитировать  

 №2. Sky™

Статус: Новичок | Новостей: 153 | Комментариев: 43
Sky™ ru4lan, для 720 это маловато еще
~~~

2.05.2013 - 10:27   цитировать  

 №3. ru4lan

Статус: Кинокритик | Новостей: 0 | Комментариев: 2736
ru4lan Sky™, ладно уговорил, поменяю авишку на эту. единственная загвоздка это отсутствие 1 части. в другом источнике брать неохота. может выложите Коллекционера для коллекции )) каламбур ))
~~~

3.05.2013 - 00:21   цитировать  

 №4. Sky™

Статус: Новичок | Новостей: 153 | Комментариев: 43
Sky™ ru4lan, подумаю
~~~

3.05.2013 - 02:09   цитировать