Вас Приветствует Релиз-группа HQCLUB


Помощь ресурсу, очень ВАЖНО!!!



.


WELCOME
Добро пожаловать в наше интернет - сообщество!

Всех нас объединяет одна страсть - страсть к высококачественному кино. А это наш сайт. Ежедневно здесь мы публикуем десятки качественных, свежих, а порой и эксклюзивных релизов, которые Вы можете скачать совершенно бесплатно и без каких-либо регистраций. Посему рекомендуем Вам добавить HQClub себе в закладки, а также подписаться на нашу ленту новостей, чтобы всегда быть в курсе всех событий. Ну а если Вы такой же синий фил, как и мы, то милости просим на наш форум. И в заключение, попробуйте зарегистрироваться, ведь не так это и сложно и займет всего лишь пару минут! Вот увидите, Вам у нас понравится и Вы вольетесь в наш дружный коллектив! Ну а пока - осматривайтесь = )
Мы рады Вам !





Левиафан / Leviathan (1989) BDRip-AVC

Оформил: Elheym | 26 февраля 2015 - 06:09:23 | Обращений: 937 {bookmarks_news}

http//lostpic.net/orig_images/5/2/3/523f09b507a12972cd21795c35f3d153.jpg

Информация о фильме:
Название: Левиафан
Оригинальное название: Leviathan
Год выхода: 1989
Жанр: ужасы, фантастика, триллер, приключения
Режиссер: Джордж П. Косматос / George P. Cosmatos
В ролях: Питер Уэллер, Ричард Кренна, Аманда Пейс, Дэниел Стерн, Эрни Хадсон, Лиза Айлбахер, Майкл Кармине, Гектор Элисондо, Мег Фостер, Юджин Липински

О фильме: Во время вахтенных работ по добыче руды на пятикилометровой глубине в Атлантике один из техников находит затонувшее русское судно. Вскоре выясняется, что на судне велись секретные эксперименты.

В сейфе, принесенном из корабля на подводную базу шахтеров, находятся записи о таинственной болезни, поразившей весь экипаж корабля. Вскоре один из шахтеров умирает и мутирует в жуткое чудовище, которое начинает уничтожать все живое на своем пути…

«Aliens thrilled you... The Fly shocked you... Now experience real fear...»



http//rating.kinopoisk.ru/24110.gif http//tracker.0day.kiev.ua/imdb/imdb_tt0097737.gif

Релиз от - http//hqclub.net/images/hqclub.png
Автор рипа: Elheym

Выпущено: США, Италия, Filmauro Distribuzione, Gordon Company, Metro-Goldwyn-Mayer (MGM)
Продолжительность: 01:38:00
Перевод 1: Профессиональный (многоголосый, закадровый)
Перевод 2: Авторский (одноголосый, закадровый) А. Гаврилов
Оригинальная аудиодорожка: английская
Субтитры: английские (полные)
Главы: присутствуют, сохранены оригинальные

Файл:
Формат: MKV
Качество: BDRip-AVC (источник: http//i6.imageban.ru/out/2013/12/03/4e28a776aefd696cd2f60144f6545e1b.gif / Blu-ray Remux US / 1080p)
Видео: 1152x492 (2.35:1), 23.976 fps, MPEG-4 AVC, ~2800 kbps avg, 0.206 bit/pixel
Аудио #1: 48 kHz, AC3 Dolby Digital, 3/2 (L,C,R,l,r) + LFE ch, ~448 kbps avg (MVO)
Аудио #2: 48 kHz, AC3 Dolby Digital, 3/2 (L,C,R,l,r) + LFE ch, ~448 kbps avg (AVO.GAVRILOV)
Аудио #3: 48 kHz, AC3 Dolby Digital, 3/2 (L,C,R,l,r) + LFE ch, ~448 kbps avg (ENG)
Размер: 2.83 GB
Сэмпл: скачать

http//lostpic.net/thumbs_images/b/f/d/bfde2a6dee93a3541f5c5c634009104c.png http//lostpic.net/thumbs_images/0/1/b/01b3b20909dad3ee24b812b52cf4c30d.png http//lostpic.net/thumbs_images/5/c/0/5c00e0afa8a7b96dd16e3246e3ab7a8c.png http//lostpic.net/thumbs_images/7/8/d/78d598530fbc81a6205529b1d6c51528.png http//lostpic.net/thumbs_images/d/f/d/dfd683a8255b6f19f7f21b4f114266a4.png http//lostpic.net/thumbs_images/6/8/b/68bebdbc92bbbb2ae452373799e4e4.png

"MediaInfo"

Уникальный идентификатор : 251749580716580093600861548636661475139 (0xBD6534A221249B0B925B7842736DE743)
Полное имя : Leviathan.1989.TRIPLE.BDRip-AVC.x264.AC3.-HQCLUB.mkv
Формат : Matroska
Версия формата : Version 2
Размер файла : 2,84 Гбайт
Продолжительность : 1 ч. 38 м.
Общий поток : 4147 Кбит/сек
Дата кодирования : UTC 2015-02-26 00:46:10
Программа кодирования : mkvmerge v5.2.0 ('I can't explain') built on Dec 18 2011 18:12:03
Библиотека кодирования : libebml v1.2.3 + libmatroska v1.3.0
Attachements : Cover.jpg

Видео
Идентификатор : 1
Формат : AVC
Формат/Информация : Advanced Video Codec
Профиль формата : High@L4.0
Параметр CABAC формата : Да
Параметр ReFrames формата : 13 кадров
Идентификатор кодека : V_MPEG4/ISO/AVC
Продолжительность : 1 ч. 38 м.
Битрейт : 2800 Кбит/сек
Ширина : 1152 пикселя
Высота : 492 пикселя
Соотношение сторон : 2,35:1
Режим частоты кадров : Постоянный
Частота кадров : 23,976 кадра/сек
Цветовое пространство : YUV
Субдискретизация насыщенности : 4:2:0
Битовая глубина : 8 бит
Тип развёртки : Прогрессивная
Бит/(Пиксели*Кадры) : 0.206
Размер потока : 1,86 Гбайт (66%)
Заголовок : Левиафан / Leviathan (1989) BDRip-AVC by HQCLUB [Elheym]
Библиотека кодирования : x264 core 144 r2525kMod 40bb568
Настройки программы : cabac=1 / ref=13 / deblock=1:-3:-3 / analyse=0x3:0x113 / me=tesa / subme=11 / psy=1 / fade_compensate=0.00 / psy_rd=0.90:0.00 / mixed_ref=1 / me_range=24 / chroma_me=1 / trellis=2 / 8x8dct=1 / cqm=0 / deadzone=21,11 / fast_pskip=1 / chroma_qp_offset=-2 / threads=6 / lookahead_threads=1 / sliced_threads=0 / nr=0 / decimate=1 / interlaced=0 / bluray_compat=0 / constrained_intra=0 / fgo=0 / bframes=16 / b_pyramid=2 / b_adapt=2 / b_bias=0 / direct=3 / weightb=1 / open_gop=0 / weightp=2 / keyint=230 / keyint_min=23 / scenecut=40 / intra_refresh=0 / rc_lookahead=80 / rc=2pass / mbtree=0 / bitrate=2800 / ratetol=1.0 / qcomp=0.80 / qpmin=0 / qpmax=69 / qpstep=4 / cplxblur=20.0 / qblur=0.5 / vbv_maxrate=20000 / vbv_bufsize=25000 / nal_hrd=none / filler=0 / ip_ratio=1.40 / pb_ratio=1.30 / aq=3:1.10
Язык : English
Default : Да
Forced : Нет

Аудио #1
Идентификатор : 2
Формат : AC-3
Формат/Информация : Audio Coding 3
Расширение режима : CM (complete main)
Параметр Endianness формата : Big
Идентификатор кодека : A_AC3
Продолжительность : 1 ч. 38 м.
Вид битрейта : Постоянный
Битрейт : 448 Кбит/сек
Каналы : 6 каналов
Расположение каналов : Front: L C R, Side: L R, LFE
Частота : 48,0 КГц
Битовая глубина : 16 бит
Метод сжатия : С потерями
Размер потока : 314 Мбайт (11%)
Заголовок : АС3 5.1 @ 448 kbps - MVO
Язык : Russian
Default : Нет
Forced : Нет

Аудио #2
Идентификатор : 3
Формат : AC-3
Формат/Информация : Audio Coding 3
Расширение режима : CM (complete main)
Параметр Endianness формата : Big
Идентификатор кодека : A_AC3
Продолжительность : 1 ч. 38 м.
Вид битрейта : Постоянный
Битрейт : 448 Кбит/сек
Каналы : 6 каналов
Расположение каналов : Front: L C R, Side: L R, LFE
Частота : 48,0 КГц
Битовая глубина : 16 бит
Метод сжатия : С потерями
Размер потока : 314 Мбайт (11%)
Заголовок : АС3 5.1 @ 448 kbps - AVO, Gavrilov
Язык : Russian
Default : Нет
Forced : Нет

Аудио #3
Идентификатор : 4
Формат : AC-3
Формат/Информация : Audio Coding 3
Расширение режима : CM (complete main)
Параметр Endianness формата : Big
Идентификатор кодека : A_AC3
Продолжительность : 1 ч. 38 м.
Вид битрейта : Постоянный
Битрейт : 448 Кбит/сек
Каналы : 6 каналов
Расположение каналов : Front: L C R, Side: L R, LFE
Частота : 48,0 КГц
Битовая глубина : 16 бит
Метод сжатия : С потерями
Размер потока : 314 Мбайт (11%)
Заголовок : АС3 5.1 @ 448 kbps - Original
Язык : English
Default : Нет
Forced : Нет

Текст
Идентификатор : 5
Формат : UTF-8
Идентификатор кодека : S_TEXT/UTF8
Идентификатор кодека/Информация : UTF-8 Plain Text
Заголовок : Full
Язык : English
Default : Нет
Forced : Нет

Меню
00:00:00.000 : :Часть 1
00:09:03.543 : :Часть 2
00:20:53.251 : :Часть 3
00:30:06.679 : :Часть 4
00:37:13.648 : :Часть 5
00:42:23.374 : :Часть 6
00:47:19.211 : :Часть 7
00:55:52.807 : :Часть 8
01:03:30.431 : :Часть 9
01:09:26.162 : :Часть 10
01:17:29.853 : :Часть 11
01:29:53.387 : :Часть 12

"x264 log"

x264 [info]: frame I:1107 Avg QP:15.71 size: 71342
x264 [info]: frame P:27575 Avg QP:17.99 size: 26307
x264 [info]: frame B:112319 Avg QP:19.65 size: 11164

x264 [info]: consecutive B-frames: 1.6% 2.3% 6.5% 14.0% 11.8% 41.5% 10.4% 2.5% 2.1% 1.6% 1.2% 1.4% 1.2% 0.7% 0.4% 0.4% 0.4%

x264 [info]: ref P L0: 42.1% 8.8% 18.2% 7.0% 5.9% 4.2% 3.9% 2.0% 1.9% 1.6% 1.5% 1.3% 1.4% 0.2% 0.0%
x264 [info]: ref B L0: 65.1% 13.7% 7.4% 3.7% 2.7% 2.3% 1.8% 1.0% 0.9% 0.8% 0.5% 0.2%
x264 [info]: ref B L1: 90.0% 10.0%


Ссылки для скачивания:

http//bt.hqclub.net/files/ok.png Торрент: Левиафан / Leviathan (1989) BDRip-AVC

Лучшая онлайн игра!


Публикация материалов сайта на сторонних ресурсах возможна только в неизменном виде.


Обсудить релиз на форуме

Вас также может заинтересовать:


  • 4
 (Голосов: 4)


Распечатать новость на принтере Ужасы, Фантастика, Триллер, Приключения