Вас Приветствует Релиз-группа HQCLUB


Помощь ресурсу, очень ВАЖНО!!!



.


WELCOME
Добро пожаловать в наше интернет - сообщество!

Всех нас объединяет одна страсть - страсть к высококачественному кино. А это наш сайт. Ежедневно здесь мы публикуем десятки качественных, свежих, а порой и эксклюзивных релизов, которые Вы можете скачать совершенно бесплатно и без каких-либо регистраций. Посему рекомендуем Вам добавить HQClub себе в закладки, а также подписаться на нашу ленту новостей, чтобы всегда быть в курсе всех событий. Ну а если Вы такой же синий фил, как и мы, то милости просим на наш форум. И в заключение, попробуйте зарегистрироваться, ведь не так это и сложно и займет всего лишь пару минут! Вот увидите, Вам у нас понравится и Вы вольетесь в наш дружный коллектив! Ну а пока - осматривайтесь = )
Мы рады Вам !





Ловец снов / Dreamcatcher (2003) BDRip-AVC

Оформил: Elheym | 8 октября 2014 - 21:10:15 | Комментариев: 2 | Обращений: 1053 {bookmarks_news}

http//lostpic.net/orig_images/4/2/2/4229dee043890797a6f185fd2ccd1955.png

Информация о фильме:
Название: Ловец снов
Оригинальное название: Dreamcatcher
Год выхода: 2003
Жанр: ужасы, фантастика, триллер, драма
Режиссер: Лоуренс Кэздан / Lawrence Kasdan
В ролях: Морган Фриман, Томас Джейн, Джейсон Ли, Дэмиэн Льюис, Тимоти Олифант, Том Сайзмор, Донни Уолберг, Майки Хоулкамп, Рис Томпсон, Джакомо Бессато

О фильме: Джонси, Генри, Пит и Бивер. Двадцать лет назад они были просто мальчишками, проживающими в одном небольшом городке штата Мэн, — детьми, нашедшими в себе достаточно мужества, чтобы героически ответить на детскую жестокость. Награда за спасение странноватого мальчика по имени Даддитс совершенно неожиданно пришла к ним в виде сверхъестественных сил, связавших всех пятерых крепчайшими узами братства.

Но когда на ежегодной охоте друзья собираются вместе в лесной хижине, то вместо ожидаемой теплой веселой атмосферы над ними начинает сгущаться абсолютное зло, приносящее гибель. Сначала к ним попадает незнакомец — затерявшийся в лесу охотник, которому и невдомек, что его организм поражен смертельной заразой. А вслед за ним возникает неистовствующий снежный буран, в эпицентре которого движется нечто еще более зловещее… Впереди — крупнейшее противостояние ужасу, не имеющему аналогов.

«Злу удается проскользнуть»



http//rating.kinopoisk.ru/6060.gif http//tracker.0day.kiev.ua/imdb/imdb_tt0285531.gif

Релиз от - http//hqclub.net/images/hqclub.png
Автор рипа: Elheym

Выпущено: США, Австралия, Castle Rock Entertainment, Kasdan Pictures, NPV Entertainment, Village Roadshow Pictures, WV Films II LLC
Продолжительность: 02:13:46
Перевод: Профессиональный (полное дублирование), BD EUR + Профессиональный (многоголосый, закадровый), РТР
Оригинальная аудио дорожка: английский
Субтитры: русские (полные х2, форсированные), английские (полные, полные SDH)
Главы: присутствуют, сохранены оригинальные

Дополнительные аудиодорожки:
+ Профессиональный (двухголосый, закадровый), Universal Channel
+ Профессиональный (двухголосый, закадровый), неизвестный, с ранних DVD
+ Авторский (одноголосый, закадровый), А. Гаврилов
+ Авторский (одноголосый, закадровый), Ю. Живов
+ Профессиональный (многоголосый, закадровый), украинский |1+1|
+ Профессиональный (многоголосый, закадровый), украинский |ICTV|

Файл:
Формат: MKV
Качество: BDRip-AVC (источник: http//i28.fastpic.ru/big/2011/1013/a8/a3d28e80c9544f4c572189fc892ea8.gif / Blu-ray EUR / 1080p)
Видео: 1150x478 (2.40:1), 23.976 fps, MPEG-4 AVC, ~4360 kbps avg, 0.331 bit/pixel
Аудио #1: 48 kHz, AC3 Dolby Digital, 2/0 (L,R) ch, ~192 kbps avg (DUB.BD)
Аудио #2: 48 kHz, AC3 Dolby Digital, 2/0 (L,R) ch, ~192 kbps avg (MVO.RTR)
Аудио #3: 48 kHz, AC3 Dolby Digital, 3/2 (L,C,R,l,r) + LFE ch, ~384 kbps avg (ENG)
Аудио #4: 48 kHz, AC3 Dolby Digital, 2/0 (L,R) ch, ~192 kbps avg (DVO.UNIVERSAL) (отдельно)
Аудио #5: 48 kHz, AC3 Dolby Digital, 2/0 (L,R) ch, ~192 kbps avg (DVO.DVD) (отдельно)
Аудио #6: 48 kHz, AC3 Dolby Digital, 3/2 (L,C,R,l,r) + LFE ch, ~384 kbps avg (AVO.GAVRILOV) (отдельно)
Аудио #7: 48 kHz, AC3 Dolby Digital, 3/2 (L,C,R,l,r) + LFE ch, ~384 kbps avg (AVO.JIVOV) (отдельно)
Аудио #8: 48 kHz, AC3 Dolby Digital, 2/0 (L,R) ch, ~192 kbps avg (MVO.UKR.1+1) (отдельно)
Аудио #9: 48 kHz, AC3 Dolby Digital, 2/0 (L,R) ch, ~192 kbps avg (MVO.UKR.ICTV) (отдельно)
Размер: 4.88 GB
Сэмпл: скачать

http//lostpic.net/thumbs_images/2/a/b/2ab2b290ffe3d76f60ba790f53534147.png http//lostpic.net/thumbs_images/b/0/9/b09722722550dbf4bae34f3928d7a1e5.png http//lostpic.net/thumbs_images/2/8/d/28d4a47dace88dc38b7daa6d235c5327.png http//lostpic.net/thumbs_images/b/f/c/bfc6434e0278f3c8f35adc700cc60edc.png http//lostpic.net/thumbs_images/e/a/2/ea23e72e9979d32c77644e44b1ab087f.png http//lostpic.net/thumbs_images/2/a/2/2a21240bd75aa771fd63cb77d12daacd.png

"MediaInfo"

Уникальный идентификатор : 231486691729132799488478819038473351154 (0xAE26B712F1E9F44680C3221843E5EFF2)
Полное имя : Dreamcatcher.2003.TRIPLE.BDRip-AVC.x264.AC3.-HQCLUB.mkv
Формат : Matroska
Версия формата : Version 2
Размер файла : 4,89 Гбайт
Продолжительность : 2 ч. 13 м.
Общий поток : 5232 Кбит/сек
Дата кодирования : UTC 2014-10-08 16:20:54
Программа кодирования : mkvmerge v5.2.0 ('I can't explain') built on Dec 18 2011 18:12:03
Библиотека кодирования : libebml v1.2.3 + libmatroska v1.3.0
Attachment : Yes

Видео
Идентификатор : 1
Формат : AVC
Формат/Информация : Advanced Video Codec
Профиль формата : High@L4.1
Параметр CABAC формата : Да
Параметр ReFrames формата : 15 кадров
Идентификатор кодека : V_MPEG4/ISO/AVC
Продолжительность : 2 ч. 13 м.
Битрейт : 4360 Кбит/сек
Ширина : 1150 пикселей
Высота : 478 пикселей
Соотношение сторон : 2,40:1
Режим частоты кадров : Постоянный
Частота кадров : 23,976 кадра/сек
Цветовое пространство : YUV
Субдискретизация насыщенности : 4:2:0
Битовая глубина : 8 бит
Тип развёртки : Прогрессивная
Бит/(Пиксели*Кадры) : 0.331
Размер потока : 4,07 Гбайт (83%)
Заголовок : Ловец снов / Dreamcatcher (2003) BDRip-AVC by HQCLUB [Elheym]
Библиотека кодирования : x264 core 142 r2479kMod dd79a61
Настройки программы : cabac=1 / ref=15 / deblock=1:-3:-2 / analyse=0x3:0x113 / me=umh / subme=11 / psy=1 / fade_compensate=0.00 / psy_rd=1.08:0.04 / mixed_ref=1 / me_range=32 / chroma_me=1 / trellis=2 / 8x8dct=1 / cqm=0 / deadzone=21,11 / fast_pskip=0 / chroma_qp_offset=-5 / threads=6 / lookahead_threads=1 / sliced_threads=0 / nr=0 / decimate=1 / interlaced=0 / bluray_compat=0 / constrained_intra=0 / fgo=0 / bframes=14 / b_pyramid=2 / b_adapt=2 / b_bias=0 / direct=1 / weightb=1 / open_gop=0 / weightp=2 / keyint=230 / keyint_min=23 / scenecut=40 / intra_refresh=0 / rc_lookahead=40 / rc=crf / mbtree=1 / crf=19.7500 / qcomp=0.70 / qpmin=0 / qpmax=69 / qpstep=4 / vbv_maxrate=50000 / vbv_bufsize=62500 / crf_max=0.0 / nal_hrd=none / filler=0 / ip_ratio=1.40 / aq=3:0.90
Язык : English
Default : Да
Forced : Нет

Аудио #1
Идентификатор : 2
Формат : AC-3
Формат/Информация : Audio Coding 3
Профиль формата : Dolby Digital
Расширение режима : CM (complete main)
Параметр Endianness формата : Big
Идентификатор кодека : A_AC3
Продолжительность : 2 ч. 13 м.
Вид битрейта : Постоянный
Битрейт : 192 Кбит/сек
Каналы : 2 канала
Расположение каналов : Front: L R
Частота : 48,0 КГц
Битовая глубина : 16 бит
Метод сжатия : С потерями
Размер потока : 184 Мбайт (4%)
Заголовок : АС3 2.0 @ 192 kbps - Dub, BD EUR
Язык : Russian
Default : Нет
Forced : Нет

Аудио #2
Идентификатор : 3
Формат : AC-3
Формат/Информация : Audio Coding 3
Расширение режима : CM (complete main)
Параметр Endianness формата : Big
Идентификатор кодека : A_AC3
Продолжительность : 2 ч. 13 м.
Вид битрейта : Постоянный
Битрейт : 192 Кбит/сек
Каналы : 2 канала
Расположение каналов : Front: L R
Частота : 48,0 КГц
Битовая глубина : 16 бит
Метод сжатия : С потерями
Размер потока : 184 Мбайт (4%)
Заголовок : АС3 2.0 @ 192 kbps - MVO, RTR
Язык : Russian
Default : Нет
Forced : Нет

Аудио #3
Идентификатор : 4
Формат : AC-3
Формат/Информация : Audio Coding 3
Расширение режима : CM (complete main)
Параметр Endianness формата : Big
Идентификатор кодека : A_AC3
Продолжительность : 2 ч. 13 м.
Вид битрейта : Постоянный
Битрейт : 384 Кбит/сек
Каналы : 6 каналов
Расположение каналов : Front: L C R, Side: L R, LFE
Частота : 48,0 КГц
Битовая глубина : 16 бит
Метод сжатия : С потерями
Размер потока : 367 Мбайт (7%)
Заголовок : АС3 5.1 @ 384 kbps - Original
Язык : English
Default : Нет
Forced : Нет

Текст #1
Идентификатор : 5
Формат : UTF-8
Идентификатор кодека : S_TEXT/UTF8
Идентификатор кодека/Информация : UTF-8 Plain Text
Заголовок : Full, BD
Язык : Russian
Default : Нет
Forced : Нет

Текст #2
Идентификатор : 6
Формат : UTF-8
Идентификатор кодека : S_TEXT/UTF8
Идентификатор кодека/Информация : UTF-8 Plain Text
Заголовок : Full
Язык : Russian
Default : Нет
Forced : Нет

Текст #3
Идентификатор : 7
Формат : UTF-8
Идентификатор кодека : S_TEXT/UTF8
Идентификатор кодека/Информация : UTF-8 Plain Text
Заголовок : Forced
Язык : Russian
Default : Нет
Forced : Нет

Текст #4
Идентификатор : 8
Формат : UTF-8
Идентификатор кодека : S_TEXT/UTF8
Идентификатор кодека/Информация : UTF-8 Plain Text
Заголовок : Full
Язык : English
Default : Нет
Forced : Нет

Текст #5
Идентификатор : 9
Формат : UTF-8
Идентификатор кодека : S_TEXT/UTF8
Идентификатор кодека/Информация : UTF-8 Plain Text
Заголовок : Full SDH
Язык : English
Default : Нет
Forced : Нет

Меню
00:00:00.000 : :Chapter 01
00:06:18.044 : :Chapter 02
00:13:31.435 : :Chapter 03
00:20:32.981 : :Chapter 04
00:30:24.656 : :Chapter 05
00:36:30.730 : :Chapter 06
00:46:05.512 : :Chapter 07
00:52:31.565 : :Chapter 08
00:59:46.249 : :Chapter 09
01:05:41.479 : :Chapter 10
01:10:58.796 : :Chapter 11
01:21:54.367 : :Chapter 12
01:30:06.359 : :Chapter 13
01:35:03.197 : :Chapter 14
01:40:59.303 : :Chapter 15
01:47:01.039 : :Chapter 16
01:53:29.594 : :Chapter 17
01:59:50.850 : :Chapter 18
02:13:45.809 : :Chapter 19

"x264 log"

x264 [info]: frame I:1285 Avg QP:16.34 size: 91199
x264 [info]: frame P:36809 Avg QP:19.91 size: 35844
x264 [info]: frame B:154339 Avg QP:21.34 size: 19696

x264 [info]: consecutive B-frames: 1.6% 1.6% 4.3% 15.5% 15.7% 36.7% 8.5% 4.3% 3.4% 2.6% 1.6% 1.1% 1.0% 1.5% 0.5%

x264 [info]: ref P L0: 40.9% 9.3% 17.7% 7.4% 5.9% 4.2% 3.6% 1.9% 1.8% 1.5% 1.4% 1.2% 1.1% 1.0% 1.0% 0.2%
x264 [info]: ref B L0: 65.2% 13.4% 7.0% 3.7% 2.7% 2.1% 1.6% 1.0% 0.8% 0.7% 0.6% 0.6% 0.3% 0.1%
x264 [info]: ref B L1: 90.5% 9.5%


Ссылки для скачивания:

http//bt.hqclub.net/files/ok.png Торрент: Ловец снов / Dreamcatcher (2003) BDRip-AVC

Лучшая онлайн игра!


Публикация материалов сайта на сторонних ресурсах возможна только в неизменном виде.


Обсудить релиз на форуме

Вас также может заинтересовать:


  • 5
 (Голосов: 2)


Распечатать новость на принтере Ужасы, Фантастика, Триллер, Драма

КОММЕНТАРИИ

 №1. zeffc63

Статус: Кинокритик | Новостей: 0 | Комментариев: 1096
zeffc63 Ну да, что то Ваши релизы с АшКуКлуба не скачиваються, буру с Рутора.. В чем причина не знаю :(
~~~

10.10.2014 - 00:08   цитировать  

 №2. ru4lan

Статус: Кинокритик | Новостей: 0 | Комментариев: 2736
ru4lan спасибо!
~~~

11.10.2014 - 14:30   цитировать