Вас Приветствует Релиз-группа HQCLUB


Помощь ресурсу, очень ВАЖНО!!!



.


WELCOME
Добро пожаловать в наше интернет - сообщество!

Всех нас объединяет одна страсть - страсть к высококачественному кино. А это наш сайт. Ежедневно здесь мы публикуем десятки качественных, свежих, а порой и эксклюзивных релизов, которые Вы можете скачать совершенно бесплатно и без каких-либо регистраций. Посему рекомендуем Вам добавить HQClub себе в закладки, а также подписаться на нашу ленту новостей, чтобы всегда быть в курсе всех событий. Ну а если Вы такой же синий фил, как и мы, то милости просим на наш форум. И в заключение, попробуйте зарегистрироваться, ведь не так это и сложно и займет всего лишь пару минут! Вот увидите, Вам у нас понравится и Вы вольетесь в наш дружный коллектив! Ну а пока - осматривайтесь = )
Мы рады Вам !





Владение 18 (2013) BDRip-AVC

Оформил: Sky™ | 19 апреля 2014 - 16:21:02 | Комментариев: 3 | Обращений: 1846 {bookmarks_news}

http//lostpic.net/orig_images/c/4/8/cdf8d1e81f4ea88a9bcee917202f.png

Информация о фильме:
Название: Владение 18
Год выхода: 2013
Жанр: ужасы, триллер, детектив
Режиссер: Святослав Подгаевский
В ролях: Дмитрий Ендальцев, Мария Фомина, Борис Полунин, Виктория Райкова, Юрий Филатов, Сергей Холмогоров, Ольга Приходько

О фильме: Сиреневые Холмы, Владение 18 — адрес обычной многоэтажки на окраине города. Скоро здесь будет новый цветущий микрорайон, но пока вокруг царит девственное запустение. Сейчас цены на квартиры в этом доме так заманчиво низки… И продают их, оказывается, только по специальной благотворительной программе инвесторов! Когда ещё небогатым молодожёнам Свете и Максиму представится такой удивительный шанс переехать из крохотной коммуналки в собственную просторную квартиру?..

Но вскоре после новоселья они начинают понимать, что с новым домом что-то не так. Странные соседи, с которыми молодожёнам никак не удаётся поговорить, сторож, больше напоминающий надзирателя в концлагере, кошмарные сны и видения, которые совсем не похожи на игру воображения… Но самое ужасное — гости, навещающие их после переезда… Гости-призраки, рассказывающие о том, какой страшной смертью они умерли в этом доме. Удастся ли Свете и Максиму выбраться живыми из дьявольской западни или уже слишком поздно?

«Зло живёт по соседству»



User Rating: 4.671 / 10 (1,124 votes)
IMDB: 5.9 / 10 (61 votes)

Релиз от - http//hqclub.net/images/hqclub.png
Автор рипа: Sky™

Выпущено: Россия
Продолжительность: 01:32:32
Субтитры: нет

Файл:
Формат: AVI
Качество: BDRip (источник: http//lostpic.net/images/22eefe6b76ddac5300f588214ee6f381.gif / Blu-Ray Disc / 1080р)
Видео: 1024x434 (2.35:1), 24.000 fps, X264@L4.1 ~2638 kbps avg, 0.247 bit/pixel
Аудио: 48 kHz, AC3 Dolby Digital, 3/2 (L,C,R,l,r) + LFE ch, ~448 kbps avg
Размер: 2041.67 Mb
http//lostpic.net/images/1b899dddff9c84e7020a856612f5c646.png

http//lostpic.net/thumbs_images/f/0/d/f0d1ea2bd9043c659f3a2e2b32c3c25b.png http//lostpic.net/thumbs_images/2/2/d/22d1cfca9deca42435e641273eaf10b3.png http//lostpic.net/thumbs_images/6/3/f/63fe5a053df0de22baba5cce7e83c633.png http//lostpic.net/thumbs_images/a/3/2/a32fd240041d240deb742f2b3f172c.png http//lostpic.net/thumbs_images/a/4/b/a4b860964b46f44e0c2805830c2235ee.png http//lostpic.net/thumbs_images/a/9/6/a961908ebc5a19926bb613a10d34212d.png http//lostpic.net/thumbs_images/b/9/e/b9e597353905397953066a777abace77.png http//lostpic.net/thumbs_images/7/5/d/75d1c060a66d0e6516b802f8da2a8910.png http//lostpic.net/thumbs_images/f/f/2/ff2cf8c9f37f1d4340b53bd05fbe8df8.png http//lostpic.net/thumbs_images/c/1/4/c14ba1594c96ad9fd54102161c5aa426.png

MediaINFO
[HTML]Полное имя : Vladenie.18.2013.BDRip-AVC.H264.AC3.-HQCLUB.mkv
Формат : Matroska
Версия формата : Version 4 / Version 2
Размер файла : 1,99 Гбайт
Продолжительность : 1 ч. 32 м.
Общий поток : 3084 Кбит/сек
Дата кодирования : UTC 2014-04-15 02:33:00
Программа кодирования : mkvmerge v6.6.0 ('The Edge Of The In Between') built on Dec 1 2013 17:55:00
Библиотека кодирования : libebml v1.3.0 + libmatroska v1.4.1

Видео
Идентификатор : 1
Формат : AVC
Формат/Информация : Advanced Video Codec
Профиль формата : High@L4.1
Параметр CABAC формата : Нет
Параметр ReFrames формата : 9 кадров
Идентификатор кодека : V_MPEG4/ISO/AVC
Продолжительность : 1 ч. 32 м.
Битрейт : 2638 Кбит/сек
Ширина : 1024 пикселя
Высота : 434 пикселя
Соотношение сторон : 2,35:1
Частота кадров : 24,000 кадра/сек
Цветовое пространство : YUV
Субдискретизация насыщенности : 4:2:0
Битовая глубина : 8 бит
Тип развёртки : Прогрессивная
Бит/(Пиксели*Кадры) : 0.247
Размер потока : 1,66 Гбайт (83%)
Заголовок : Владение 18 (2013) BDRip-AVC | HQCLUB
Библиотека кодирования : x264 core 138 r2358 9e941d1
Настройки программы : cabac=0 / ref=9 / deblock=1:-3:-2 / analyse=0x3:0x113 / me=umh / subme=11 / psy=1 / psy_rd=1.00:0.00 / mixed_ref=1 / me_range=64 / chroma_me=1 / trellis=2 / 8x8dct=1 / cqm=0 / deadzone=21,11 / fast_pskip=1 / chroma_qp_offset=-4 / threads=12 / lookahead_threads=2 / sliced_threads=0 / nr=0 / decimate=1 / interlaced=0 / bluray_compat=0 / constrained_intra=0 / bframes=9 / b_pyramid=2 / b_adapt=2 / b_bias=0 / direct=1 / weightb=1 / open_gop=0 / weightp=2 / keyint=240 / keyint_min=24 / scenecut=40 / intra_refresh=0 / rc_lookahead=40 / rc=2pass / mbtree=0 / bitrate=2638 / ratetol=1.0 / qcomp=0.60 / qpmin=0 / qpmax=69 / qpstep=4 / cplxblur=20.0 / qblur=0.5 / vbv_maxrate=62500 / vbv_bufsize=50000 / nal_hrd=none / ip_ratio=1.40 / pb_ratio=1.30 / aq=1:0.90
Язык : Russian
Default : Да
Forced : Нет

Аудио
Идентификатор : 2
Формат : AC-3
Формат/Информация : Audio Coding 3
Расширение режима : CM (complete main)
Идентификатор кодека : A_AC3
Продолжительность : 1 ч. 32 м.
Вид битрейта : Постоянный
Битрейт : 448 Кбит/сек
Каналы : 6 каналов
Расположение каналов : Front: L C R, Side: L R, LFE
Частота : 48,0 КГц
Битовая глубина : 16 бит
Метод сжатия : С потерями
Размер потока : 297 Мбайт (15%)
Заголовок : Оригинальная звуковая дорожка
Язык : Russian
Default : Да
Forced : Нет

Меню
00:00:00.000 : en:00:00:00.000
00:00:04.000 : en:00:00:04.000
00:10:10.458 : en:00:10:10.458
00:19:36.417 : en:00:19:36.417
00:30:53.500 : en:00:30:53.500
00:40:34.958 : en:00:40:34.958
00:49:58.542 : en:00:49:58.542
01:07:22.792 : en:01:07:22.792
01:24:06.417 : en:01:24:06.417[/HTML]

x264 log
[HTML]---[Information] [15.04.2014 1:21:54] x264 [info]: frame I:814 Avg QP:12.77 size: 62853
---[Information] [15.04.2014 1:21:54] x264 [info]: frame P:28403 Avg QP:14.94 size: 25743
---[Information] [15.04.2014 1:21:54] x264 [info]: frame B:104043 Avg QP:16.71 size: 10057
---[Information] [15.04.2014 1:21:54] x264 [info]: consecutive B-frames: 2.0% 3.3% 9.6% 12.1% 15.3% 41.4% 7.4% 1.8% 5.5% 1.5%
---[Information] [15.04.2014 1:21:54] x264 [info]: mb I I16..4: 6.4% 74.1% 19.5%
---[Information] [15.04.2014 1:21:54] x264 [info]: mb P I16..4: 2.9% 20.0% 4.9% P16..4: 27.2% 33.7% 8.4% 0.0% 0.0% skip: 2.9%
---[Information] [15.04.2014 1:21:54] x264 [info]: mb B I16..4: 0.7% 2.2% 0.7% B16..8: 35.7% 23.7% 2.4% direct: 9.1% skip:25.6% L0:46.3% L1:44.4% BI: 9.3%
---[Information] [15.04.2014 1:21:54] x264 [info]: 8x8 transform intra:69.0% inter:55.1%
---[Information] [15.04.2014 1:21:54] x264 [info]: coded y,uvDC,uvAC intra: 76.9% 81.3% 67.7% inter: 23.9% 30.0% 8.9%
---[Information] [15.04.2014 1:21:54] x264 [info]: i16 v,h,dc,p: 40% 16% 7% 37%
---[Information] [15.04.2014 1:21:54] x264 [info]: i8 v,h,dc,ddl,ddr,vr,hd,vl,hu: 13% 6% 14% 10% 12% 12% 11% 11% 10%
---[Information] [15.04.2014 1:21:54] x264 [info]: i4 v,h,dc,ddl,ddr,vr,hd,vl,hu: 31% 6% 11% 8% 11% 11% 8% 8% 5%
---[Information] [15.04.2014 1:21:54] x264 [info]: i8c dc,h,v,p: 52% 19% 22% 7%
---[Information] [15.04.2014 1:21:54] x264 [info]: Weighted P-Frames: Y:7.0% UV:4.1%
---[Information] [15.04.2014 1:21:54] x264 [info]: ref P L0: 44.1% 7.7% 17.8% 8.1% 6.4% 5.3% 4.5% 2.9% 2.6% 0.5% 0.0%
---[Information] [15.04.2014 1:21:54] x264 [info]: ref B L0: 63.6% 14.5% 8.7% 4.5% 3.6% 3.1% 1.7% 0.5%
---[Information] [15.04.2014 1:21:54] x264 [info]: ref B L1: 88.4% 11.6%[/HTML]

Ссылки для скачивания:

http//bt.hqclub.net/files/ok.png Торрент: Владение 18 (2013) BDRip-AVC

Лучшая онлайн игра!


Публикация материалов сайта на сторонних ресурсах возможна только в неизменном виде.


Обсудить релиз на форуме

Вас также может заинтересовать:


  • 4
 (Голосов: 2)


Распечатать новость на принтере Ужасы, Триллер, Детектив, Отечественный
Обновлено: 21.04.2014 - 23:31

КОММЕНТАРИИ

 №1. ru4lan

Статус: Кинокритик | Новостей: 0 | Комментариев: 2736
ru4lan беру, несмотря на рейт. совсем страшных фильмов мало стало нормальных в последнее время
~~~

21.04.2014 - 20:29   цитировать  

 №2. sparex2000

Статус: Новичок | Новостей: 0 | Комментариев: 39
sparex2000 Поддерживаю ru4lan жанр ужасы уже не тот ak
~~~

22.04.2014 - 09:41   цитировать  

 №3. zeffc63

Статус: Кинокритик | Новостей: 0 | Комментариев: 1096
zeffc63 фильм слабоват..
~~~

22.04.2014 - 23:25   цитировать