Вас Приветствует Релиз-группа HQCLUB


Помощь ресурсу, очень ВАЖНО!!!



.


WELCOME
Добро пожаловать в наше интернет - сообщество!

Всех нас объединяет одна страсть - страсть к высококачественному кино. А это наш сайт. Ежедневно здесь мы публикуем десятки качественных, свежих, а порой и эксклюзивных релизов, которые Вы можете скачать совершенно бесплатно и без каких-либо регистраций. Посему рекомендуем Вам добавить HQClub себе в закладки, а также подписаться на нашу ленту новостей, чтобы всегда быть в курсе всех событий. Ну а если Вы такой же синий фил, как и мы, то милости просим на наш форум. И в заключение, попробуйте зарегистрироваться, ведь не так это и сложно и займет всего лишь пару минут! Вот увидите, Вам у нас понравится и Вы вольетесь в наш дружный коллектив! Ну а пока - осматривайтесь = )
Мы рады Вам !





Шкатулка проклятия / Одержимость / The Possession (2012) BDRip 720p

Оформил: Sky™ | 19 января 2013 - 20:01:43 | Комментариев: 2 | Обращений: 1691 {bookmarks_news}

http//lostpic.net/images/689f8420ccc0a4723f9603a128777c6d.png

Информация о фильме:
Название: Шкатулка проклятия / Одержимость
Оригинальное название: The Possession
Год выхода: 2012
Жанр: ужасы, триллер
Режиссер: Уле Борнедаль
В ролях: Джеффри Дин Морган, Михаил Георгиу, Наташа Калис, Кира Седжвик, Мэдисон Девенпорт, Роб ЛаБелль, Матисьяху, Джей Бразо, Никита Прозоровский, Грант Шоу, Нана Гбивонио, Анна Хэган

О фильме:
Девочка покупает винтажную шкатулку на ярмарке в одном из соседних дворов. Поначалу родители не видят повода для беспокойства, когда их младшая дочь становится одержима новой игрушкой. Со временем поведение девочки становится все более странным, а реакции неожиданными, родители пытаются раскрыть секрет шкатулки. Они не подозревают, что в деревянной коробке живет злой дух, который творит страшные вещи со своими хозяевами - их было много и владели они этим «сокровищем» очень недолго. Отец девочки объединяется с бывшей женой в попытках найти способ снять проклятие с их ребёнка.

«Бойся демона, что не боится Бога»



http//lostpic.net/images/d8f51dbb318a2cfe696b8151b4179666.gifhttp//www.kinopoisk.ru/rating/88147.gif

Релиз от - http//hqclub.net/images/hqclub.png
Автор рипа: Sky™

Выпущено: США, Канада
Продолжительность: 01:32:13
Перевод: Профессиональный (полное дублирование) BD RUS + Оригинальная звуковая дорожка (Английская)
Субтитры: Русские, английские (2 вида) (отключаемые, *.srt)

Файл:
Формат: mkv
Качество: BDRip 720p (источник: http//lostpic.net/images/9c91306e9cffafb1a5062eee37d4276c.png / Blu-Ray Disc / 1080p)
Видео: 1280x532 (2.40:1), 23.976 fps, X264@L4.1 ~6102 kbps avg, 0.374 bit/pixel
Аудио #1: 48 kHz, AC3 Dolby Digital, 3/2 (L,C,R,l,r) + LFE ch, ~640.00 kbps avg BD RUS
Аудио #2: 48 kHz, AC3 Dolby Digital, 3/2 (L,C,R,l,r) + LFE ch, ~640.00 kbps avg
Размер: 4970.83 Mb
http//lostpic.net/images/1b899dddff9c84e7020a856612f5c646.png

Скриншоты:

http//lostpic.net/thumbs/953b28af369e6db080a6266f6b3bdd.png http//lostpic.net/thumbs/0092941caaa1761cfaca0f07f7322002.png http//lostpic.net/thumbs/194ad66810997b621611e1813b14d2.png http//lostpic.net/thumbs/d1db83394c2b882ea45c53de419692.png http//lostpic.net/thumbs/96e1a1aeeda65d501ac7d962a09f7220.png http//lostpic.net/thumbs/90232c21ad80ad0c7c356980a101322d.png http//lostpic.net/thumbs/3406137b0fcacc7aae42ff3f072246.png

MediaINFO
[HTML]Полное имя : Shkatulka.proklyatiya.2012.BDRip.720p.H264.AC3.-HQCLUB.mkv
Формат : Matroska
Версия формата : Version 2
Размер файла : 4,85 Гбайт
Продолжительность : 1 ч. 32 м.
Общий поток : 7532 Кбит/сек
Дата кодирования : UTC 2013-01-19 13:56:51
Программа кодирования : mkvmerge v5.7.0 ('The Whirlwind') built on Jul 8 2012 20:08:51
Библиотека кодирования : libebml v1.2.3 + libmatroska v1.3.0

Видео
Идентификатор : 1
Формат : AVC
Формат/Информация : Advanced Video Codec
Профиль формата : High@L4.1
Параметр CABAC формата : Да
Параметр ReFrames формата : 4 кадра
Идентификатор кодека : V_MPEG4/ISO/AVC
Продолжительность : 1 ч. 32 м.
Битрейт : 6102 Кбит/сек
Ширина : 1280 пикселей
Высота : 532 пикселя
Соотношение сторон : 2,40:1
Режим частоты кадров : Постоянный
Частота кадров : 23,976 кадра/сек
Цветовое пространство : YUV
Субдискретизация насыщенности : 4:2:0
Битовая глубина : 8 бит
Тип развёртки : Прогрессивная
Бит/(Пиксели*Кадры) : 0.374
Размер потока : 3,93 Гбайт (81%)
Заголовок : Шкатулка проклятия / The Possession (2012) BDRip 720p | HQCLUB
Библиотека кодирования : x264 core 120 r2146 bcd41db
Настройки программы : cabac=1 / ref=4 / deblock=1:-3:-2 / analyse=0x3:0x113 / me=umh / subme=9 / psy=1 / psy_rd=1.00:0.00 / mixed_ref=1 / me_range=48 / chroma_me=1 / trellis=2 / 8x8dct=1 / cqm=0 / deadzone=21,11 / fast_pskip=1 / chroma_qp_offset=-4 / threads=12 / sliced_threads=0 / nr=0 / decimate=1 / interlaced=0 / bluray_compat=0 / constrained_intra=0 / bframes=10 / b_pyramid=2 / b_adapt=2 / b_bias=0 / direct=1 / weightb=1 / open_gop=0 / weightp=2 / keyint=240 / keyint_min=24 / scenecut=40 / intra_refresh=0 / rc=cqp / mbtree=0 / qp=19 / ip_ratio=1.40 / pb_ratio=1.30 / aq=0
Язык : English
Default : Да
Forced : Нет

Аудио #1
Идентификатор : 2
Формат : AC-3
Формат/Информация : Audio Coding 3
Расширение режима : CM (complete main)
Параметр Endianness формата : Big
Идентификатор кодека : A_AC3
Продолжительность : 1 ч. 32 м.
Вид битрейта : Постоянный
Битрейт : 640 Кбит/сек
Каналы : 6 каналов
Расположение каналов : Front: L C R, Side: L R, LFE
Частота : 48,0 КГц
Битовая глубина : 16 бит
Метод сжатия : С потерями
Размер потока : 422 Мбайт (8%)
Заголовок : Дубляж (BD RUS) AC3 5.1 @ 640 kbps
Язык : Russian
Default : Да
Forced : Нет

Аудио #2
Идентификатор : 3
Формат : AC-3
Формат/Информация : Audio Coding 3
Расширение режима : CM (complete main)
Параметр Endianness формата : Big
Идентификатор кодека : A_AC3
Продолжительность : 1 ч. 32 м.
Вид битрейта : Постоянный
Битрейт : 640 Кбит/сек
Каналы : 6 каналов
Расположение каналов : Front: L C R, Side: L R, LFE
Частота : 48,0 КГц
Битовая глубина : 16 бит
Метод сжатия : С потерями
Размер потока : 422 Мбайт (8%)
Заголовок : Оригинал AC3 5.1 @ 640 kbps
Язык : English
Default : Нет
Forced : Нет

Текст #1
Идентификатор : 4
Формат : UTF-8
Идентификатор кодека : S_TEXT/UTF8
Идентификатор кодека/Информация : UTF-8 Plain Text
Заголовок : Full
Язык : Russian
Default : Да
Forced : Нет

Текст #2
Идентификатор : 5
Формат : UTF-8
Идентификатор кодека : S_TEXT/UTF8
Идентификатор кодека/Информация : UTF-8 Plain Text
Заголовок : Full
Язык : English
Default : Нет
Forced : Нет

Текст #3
Идентификатор : 6
Формат : UTF-8
Идентификатор кодека : S_TEXT/UTF8
Идентификатор кодека/Информация : UTF-8 Plain Text
Заголовок : SDH
Язык : English
Default : Нет
Forced : Нет

Меню
00:00:00.000 : en:00:00:00.000
00:03:36.508 : en:00:03:36.508
00:08:00.313 : en:00:08:00.313
00:11:01.744 : en:00:11:01.744
00:13:24.721 : en:00:13:24.721
00:16:57.016 : en:00:16:57.016
00:20:51.250 : en:00:20:51.250
00:25:05.129 : en:00:25:05.129
00:30:09.975 : en:00:30:09.975
00:35:03.560 : en:00:35:03.560
00:39:06.177 : en:00:39:06.177
00:43:04.540 : en:00:43:04.540
00:46:16.816 : en:00:46:16.816
00:50:02.458 : en:00:50:02.458
00:52:48.707 : en:00:52:48.707
00:55:26.573 : en:00:55:26.573
00:57:09.926 : en:00:57:09.926
01:01:59.341 : en:01:01:59.341
01:05:47.569 : en:01:05:47.569
01:08:22.098 : en:01:08:22.098
01:12:05.404 : en:01:12:05.404
01:17:08.749 : en:01:17:08.749
01:24:01.912 : en:01:24:01.912
01:26:42.239 : en:01:26:42.239[/HTML]


x264 log
[HTML]---[NoImage] x264 [info]: frame I:1127 Avg QP:16.00 size:144741
---[NoImage] x264 [info]: frame P:25786 Avg QP:19.00 size: 52908
---[NoImage] x264 [info]: frame B:105759 Avg QP:20.78 size: 26451
---[NoImage] x264 [info]: consecutive B-frames: 1.7% 2.2% 3.0% 14.5% 16.8% 42.1% 8.2% 4.7% 2.8% 2.5% 1.4%
---[NoImage] x264 [info]: mb I I16..4: 11.3% 72.8% 15.9%
---[NoImage] x264 [info]: mb P I16..4: 1.1% 13.7% 1.9% P16..4: 28.3% 24.2% 13.9% 0.0% 0.0% skip:16.9%
---[NoImage] x264 [info]: mb B I16..4: 0.0% 1.6% 0.3% B16..8: 40.6% 10.9% 4.6% direct:10.3% skip:31.6% L0:38.5% L1:42.2% BI:19.3%
---[NoImage] x264 [info]: 8x8 transform intra:80.2% inter:60.1%
---[NoImage] x264 [info]: coded y,uvDC,uvAC intra: 89.0% 81.7% 66.7% inter: 41.0% 30.3% 8.6%
---[NoImage] x264 [info]: i16 v,h,dc,p: 40% 23% 12% 25%
---[NoImage] x264 [info]: i8 v,h,dc,ddl,ddr,vr,hd,vl,hu: 13% 9% 11% 9% 13% 12% 11% 11% 11%
---[NoImage] x264 [info]: i4 v,h,dc,ddl,ddr,vr,hd,vl,hu: 42% 6% 5% 6% 10% 9% 8% 7% 7%
---[NoImage] x264 [info]: i8c dc,h,v,p: 45% 21% 18% 16%
---[NoImage] x264 [info]: Weighted P-Frames: Y:8.4% UV:4.4%
---[NoImage] x264 [info]: ref P L0: 51.1% 13.1% 23.4% 11.5% 0.9% 0.1%
---[NoImage] x264 [info]: ref B L0: 85.7% 11.6% 2.7%
---[NoImage] x264 [info]: ref B L1: 90.2% 9.8%[/HTML]


Ссылки для скачивания:

http//bt.hqclub.net/files/ok.png Торрент: Шкатулка проклятия / Одержимость / The Possession (2012) BDRip 720p

Лучшая онлайн игра!


Публикация материалов сайта на сторонних ресурсах возможна только в неизменном виде.


Обсудить релиз на форуме

Вас также может заинтересовать:


  • 4
 (Голосов: 3)


Распечатать новость на принтере Ужасы, Триллер
Обновлено: 22.01.2013 - 18:12

КОММЕНТАРИИ

 №1. ru4lan

Статус: Кинокритик | Новостей: 0 | Комментариев: 2736
ru4lan кто смотрел?
~~~

20.01.2013 - 20:20   цитировать  

 №2. zeffc63

Статус: Кинокритик | Новостей: 0 | Комментариев: 1096
zeffc63 На всякий случай: Шкатулка проклятия / The Possession (2012) BDRip-AVC от HQCLUB. http://www.rutor.org/torrent/249933/shkatulka-prokljatija_the-possession-2012-bdrip-avc-ot-hqcl ub

ru4lan Фильм нормальный!
~~~

25.01.2013 - 13:54   цитировать