Вас Приветствует Релиз-группа HQCLUB


Помощь ресурсу, очень ВАЖНО!!!



.


WELCOME
Добро пожаловать в наше интернет - сообщество!

Всех нас объединяет одна страсть - страсть к высококачественному кино. А это наш сайт. Ежедневно здесь мы публикуем десятки качественных, свежих, а порой и эксклюзивных релизов, которые Вы можете скачать совершенно бесплатно и без каких-либо регистраций. Посему рекомендуем Вам добавить HQClub себе в закладки, а также подписаться на нашу ленту новостей, чтобы всегда быть в курсе всех событий. Ну а если Вы такой же синий фил, как и мы, то милости просим на наш форум. И в заключение, попробуйте зарегистрироваться, ведь не так это и сложно и займет всего лишь пару минут! Вот увидите, Вам у нас понравится и Вы вольетесь в наш дружный коллектив! Ну а пока - осматривайтесь = )
Мы рады Вам !





Любовь с риском для жизни / La chance de ma vie (2010) BDRip-AVC

Оформил: Elheym | 12 января 2015 - 19:42:44 | Комментариев: 2 | Обращений: 885 {bookmarks_news}

http//lostpic.net/orig_images/a/7/f/a7ff6472f4bd9085d36fa2dc99a27cc2.jpg

Информация о фильме:
Название: Любовь с риском для жизни
Оригинальное название: La chance de ma vie
Год выхода: 2010
Жанр: мелодрама, комедия
Режиссер: Николя Кюш
В ролях: Вирджиния Эфира, Франсуа-Ксавье Демезон, Армель Дойч, Рафаэль Персонас, Томас Н’Гиоль, Брижит Роюан, Ив Жак, Мари-Кристин Адам, Эли Семун, Франсис Перрен

О фильме: У Жюльена серьезная проблема. Он прекрасный консультант в брачных вопросах, но не одна женщина не остается с ним дольше, чем на две недели. Он приносит им несчастье. Не абстрактную неудачу, а вполне конкретное несчастье: его женщины или попадают в больницу несколько раз в неделю, или у них рушится карьера, или они ссорятся навсегда со своими близкими. Джоанна убедится в этом на собственном опыте. В день, когда их пути пересеклись ее карьера находилась на взлете, ее личная жизнь наконец наладилась... Все это может очень быстро измениться.

«Страховка не прилагается»



http//rating.kinopoisk.ru/521801.gif http//tracker.0day.kiev.ua/imdb/imdb_tt1667100.gif

Релиз от - http//hqclub.net/images/hqclub.png
Автор рипа: Elheym

Выпущено: Франция, Бельгия, Bruxelles Capitale, Cinémage 4, Fidélité Films, Jerico, Mars Films, Orange Cinéma Séries, Procirep, Région Wallone, SCOPE Invest, Scope Pictures, TF1 Films Production, Wild Bunch
Продолжительность: 01:31:08
Перевод : Профессиональный (полное дублирование), BD EUR
Оригинальная аудиодорожка: французская
Субтитры: русские (полные)
Главы: присутствуют, сохранены оригинальные

Файл:
Формат: MKV
Качество: BDRip-AVC (источник: http//lostpic.net/images/20a38122bcc5994b3cdae6e4b4b0.png / Blu-ray EUR / 1080p)
Видео: 1142x618 (1.85:1), 23.976 fps, MPEG-4 AVC, ~2527 kbps avg, 0.149 bit/pixel
Аудио #1: 48 kHz, AC3 Dolby Digital, 3/2 (L,C,R,l,r) + LFE ch, ~448 kbps avg (DUB)
Аудио #2: 48 kHz, AC3 Dolby Digital, 3/2 (L,C,R,l,r) + LFE ch, ~448 kbps avg (FRE)
Размер: 2.17 GB
Сэмпл: скачать

http//lostpic.net/thumbs_images/4/a/7/4a7da9361bea39ae79751e883c566d9b.png http//lostpic.net/thumbs_images/7/1/9/7192bc9c886b1199a1fbf7433aaa735f.png http//lostpic.net/thumbs_images/4/e/1/4e10bbc333f5eeadaa5fd99730b9f0.png http//lostpic.net/thumbs_images/8/1/0/8103cd700754042b2dc305b466d675.png http//lostpic.net/thumbs_images/7/8/9/789451559b99fc419a96d9b8d2fb8710.png http//lostpic.net/thumbs_images/f/a/5/fa54caa553f50469e0fc9bd535c46b.png

"MediaInfo"

Уникальный идентификатор : 180533652234876930983685449069402328276 (0x87D1844532A0C600A3D0D17283950CD4)
Полное имя : F:\!Encoding\La chance de ma vie\La.chance.de.ma.vie.2010.DUAL.BDRip-AVC.x264.AC3.-HQCLUB.mkv
Формат : Matroska
Версия формата : Version 2
Размер файла : 2,18 Гбайт
Продолжительность : 1 ч. 31 м.
Общий поток : 3424 Кбит/сек
Дата кодирования : UTC 2015-01-12 16:22:29
Программа кодирования : mkvmerge v5.2.0 ('I can't explain') built on Dec 18 2011 18:12:03
Библиотека кодирования : libebml v1.2.3 + libmatroska v1.3.0
Attachements : Cover.jpg

Видео
Идентификатор : 1
Формат : AVC
Формат/Информация : Advanced Video Codec
Профиль формата : High@L4.1
Параметр CABAC формата : Да
Параметр ReFrames формата : 11 кадров
Идентификатор кодека : V_MPEG4/ISO/AVC
Продолжительность : 1 ч. 31 м.
Битрейт : 2527 Кбит/сек
Ширина : 1142 пикселя
Высота : 618 пикселей
Соотношение сторон : 1,85:1
Режим частоты кадров : Постоянный
Частота кадров : 23,976 кадра/сек
Цветовое пространство : YUV
Субдискретизация насыщенности : 4:2:0
Битовая глубина : 8 бит
Тип развёртки : Прогрессивная
Бит/(Пиксели*Кадры) : 0.149
Размер потока : 1,57 Гбайт (72%)
Заголовок : Любовь с риском для жизни / La chance de ma vie (2010) BDRip-AVC by HQCLUB [Elheym]
Библиотека кодирования : x264 core 144 r2525kMod 40bb568
Настройки программы : cabac=1 / ref=11 / deblock=1:-1:-1 / analyse=0x3:0x133 / me=umh / subme=11 / psy=1 / fade_compensate=0.00 / psy_rd=1.00:0.00 / mixed_ref=1 / me_range=32 / chroma_me=1 / trellis=2 / 8x8dct=1 / cqm=0 / deadzone=21,11 / fast_pskip=0 / chroma_qp_offset=-4 / threads=6 / lookahead_threads=1 / sliced_threads=0 / nr=0 / decimate=1 / interlaced=0 / bluray_compat=0 / constrained_intra=0 / fgo=0 / bframes=10 / b_pyramid=2 / b_adapt=2 / b_bias=0 / direct=3 / weightb=1 / open_gop=0 / weightp=2 / keyint=230 / keyint_min=23 / scenecut=40 / intra_refresh=0 / rc_lookahead=40 / rc=2pass / mbtree=0 / bitrate=2527 / ratetol=1.0 / qcomp=0.70 / qpmin=0 / qpmax=69 / qpstep=4 / cplxblur=20.0 / qblur=0.5 / vbv_maxrate=50000 / vbv_bufsize=62500 / nal_hrd=none / filler=0 / ip_ratio=1.40 / pb_ratio=1.30 / aq=2:0.90 / zones=125119,131122,b=0.32
Язык : French
Default : Да
Forced : Нет
Основные цвета : BT.709
Характеристики трансфера : BT.709
Коэффициенты матрицы : BT.709
colour_range : Limited

Аудио #1
Идентификатор : 2
Формат : AC-3
Формат/Информация : Audio Coding 3
Расширение режима : CM (complete main)
Параметр Endianness формата : Big
Идентификатор кодека : A_AC3
Продолжительность : 1 ч. 31 м.
Вид битрейта : Постоянный
Битрейт : 448 Кбит/сек
Каналы : 6 каналов
Расположение каналов : Front: L C R, Side: L R, LFE
Частота : 48,0 КГц
Битовая глубина : 16 бит
Метод сжатия : С потерями
Размер потока : 292 Мбайт (13%)
Заголовок : АС3 5.1 @ 448 kbps - Dub, BD EUR
Язык : Russian
Default : Нет
Forced : Нет

Аудио #2
Идентификатор : 3
Формат : AC-3
Формат/Информация : Audio Coding 3
Расширение режима : CM (complete main)
Параметр Endianness формата : Big
Идентификатор кодека : A_AC3
Продолжительность : 1 ч. 31 м.
Вид битрейта : Постоянный
Битрейт : 448 Кбит/сек
Каналы : 6 каналов
Расположение каналов : Front: L C R, Side: L R, LFE
Частота : 48,0 КГц
Битовая глубина : 16 бит
Метод сжатия : С потерями
Размер потока : 292 Мбайт (13%)
Заголовок : АС3 5.1 @ 448 kbps - Original
Язык : French
Default : Нет
Forced : Нет

Текст
Идентификатор : 4
Формат : UTF-8
Идентификатор кодека : S_TEXT/UTF8
Идентификатор кодека/Информация : UTF-8 Plain Text
Заголовок : Full
Язык : Russian
Default : Нет
Forced : Нет

Меню
00:00:00.000 : :Chapter 01
00:09:53.843 : :Chapter 02
00:16:33.117 : :Chapter 03
00:22:19.588 : :Chapter 04
00:30:07.597 : :Chapter 05
00:38:24.176 : :Chapter 06
00:44:52.940 : :Chapter 07
00:55:43.798 : :Chapter 08
01:04:13.099 : :Chapter 09
01:09:17.278 : :Chapter 10
01:13:08.258 : :Chapter 11
01:18:44.594 : :Chapter 12
01:31:08.337 : :Chapter 13

"x264 log"

x264 [info]: frame I:1560 Avg QP:16.01 size: 95914
x264 [info]: frame P:26457 Avg QP:18.81 size: 26906
x264 [info]: frame B:103106 Avg QP:20.83 size: 8388

x264 [info]: consecutive B-frames: 2.2% 1.3% 4.6% 18.4% 18.9% 43.9% 5.5% 1.5% 1.2% 2.0% 0.7%

x264 [info]: ref P L0: 50.3% 9.2% 15.6% 7.1% 5.2% 3.9% 3.1% 1.8% 1.5% 1.2% 1.0% 0.1% 0.0%
x264 [info]: ref B L0: 75.2% 13.0% 4.9% 2.3% 1.6% 1.2% 0.9% 0.5% 0.3% 0.1%
x264 [info]: ref B L1: 93.2% 6.8%


Ссылки для скачивания:

http//bt.hqclub.net/files/ok.png Торрент: Любовь с риском для жизни / La chance de ma vie (2010) BDRip-AVC

Лучшая онлайн игра!


Публикация материалов сайта на сторонних ресурсах возможна только в неизменном виде.


Обсудить релиз на форуме

Вас также может заинтересовать:


  • 3
 (Голосов: 3)


Распечатать новость на принтере Мелодрама, Комедия
Обновлено: 12.01.2015 - 22:04

КОММЕНТАРИИ

 №1. ru4lan

Статус: Кинокритик | Новостей: 0 | Комментариев: 2736
ru4lan Выпущено: Франция, Бельгия, Bruxelles Capitale, CinГ©mage 4, FidГ©litГ© Films, Jerico, Mars Films, Orange CinГ©ma SГ©ries, Procirep, RГ©gion Wallone, SCOPE Invest, Scope Pictures, TF1 Films Production, Wild Bunch
Ужас какой длинный список
~~~

12.01.2015 - 20:34   цитировать  

 №2. Modesto

Статус: Новичок | Новостей: 0 | Комментариев: 9
Modesto Вирджиния Эфирa, спасибо, с ней сразу беру.
~~~

17.01.2015 - 18:27   цитировать