Вас Приветствует Релиз-группа HQCLUB


Помощь ресурсу, очень ВАЖНО!!!



.


WELCOME
Добро пожаловать в наше интернет - сообщество!

Всех нас объединяет одна страсть - страсть к высококачественному кино. А это наш сайт. Ежедневно здесь мы публикуем десятки качественных, свежих, а порой и эксклюзивных релизов, которые Вы можете скачать совершенно бесплатно и без каких-либо регистраций. Посему рекомендуем Вам добавить HQClub себе в закладки, а также подписаться на нашу ленту новостей, чтобы всегда быть в курсе всех событий. Ну а если Вы такой же синий фил, как и мы, то милости просим на наш форум. И в заключение, попробуйте зарегистрироваться, ведь не так это и сложно и займет всего лишь пару минут! Вот увидите, Вам у нас понравится и Вы вольетесь в наш дружный коллектив! Ну а пока - осматривайтесь = )
Мы рады Вам !





Она / Her (2013) BDRip-AVC

Оформил: Elheym | 17 декабря 2014 - 19:58:19 | Комментариев: 1 | Обращений: 832 {bookmarks_news}

http//lostpic.net/orig_images/3/e/e/3ee5f14be5404ba8f61a8de07ab71635.jpg

Информация о фильме:
Название: Она
Оригинальное название: Her
Год выхода: 2013
Жанр: мелодрама, драма, фантастика
Режиссер: Спайк Джонс / Spike Jonze
В ролях: Хоакин Феникс, Эми Адамс, Руни Мара, Оливия Уайлд, Скарлетт Йоханссон, Линн А. Фридман, Лиза Рени Питтс, Гейб Гомез, Крис Прэтт, Артт Батлер, Мэй Линдстрём, Билл Хейдер, Кристен Уиг, Брайан Джонсон, Мэтт Летчер, Спайк Джонс

О фильме: Теодор — одинокий писатель, покупает новую техническую разработку — операционную систему, призванную исполнять любое желание пользователя. К удивлению Теодора, вскоре между ним и операционной системой возникает роман.

http//rating.kinopoisk.ru/78.gif http//tracker.0day.kiev.ua/imdb/imdb_tt1798709.gif

Релиз от - http//hqclub.net/images/hqclub.png
Автор рипа: Elheym

Выпущено: США, Annapurna Pictures
Продолжительность: 02:05:50
Перевод 1: Профессиональный (полное дублирование), BD RUS
Перевод 2: Любительский (многоголосый, закадровый), Гараж Дубляж
Перевод 3: Одноголосый (закадровый), А. Матвеев
Оригинальная аудио дорожка: английский
Субтитры: Русские (полные, форсированные), Английские (полные, полные SDH)

Дополнительные аудиодорожки:
+ Любительский (многоголосый, закадровый), Гараж Дубляж
+ Одноголосый (закадровый), А. Матвеев

Файл:
Формат: MKV
Качество: BDRip-AVC (источник: NovaLan / Blu-ray Remux / 1080p)
Видео: 1138x614 (1.85:1), 23.976 fps, MPEG-4 AVC, ~2985 kbps avg, 0.178 bit/pixel
Аудио #1: 48 kHz, AC3 Dolby Digital, 3/2 (L,C,R,l,r) + LFE ch, ~448 kbps avg (DUB)
Аудио #2: 48 kHz, AC3 Dolby Digital, 3/2 (L,C,R,l,r) + LFE ch, ~448 kbps avg (ENG)
Аудио #3: 48 kHz, AC3 Dolby Digital, 3/2 (L,C,R,l,r) + LFE ch, ~448 kbps avg (UKR.MVO)
Аудио #4: 48 kHz, AC3 Dolby Digital, 3/2 (L,C,R,l,r) + LFE ch, ~448 kbps avg (MVO.GARAZH) (отдельно)
Аудио #5: 48 kHz, AC3 Dolby Digital, 3/2 (L,C,R,l,r) + LFE ch, ~448 kbps avg (VO.MATVEEV) (отдельно)
Размер: 3.87 GB
Сэмпл: скачать

http//lostpic.net/thumbs_images/2/7/f/27fb285ef51ab8b4dd5ea5f1456278.png http//lostpic.net/thumbs_images/9/7/4/974cf9affc9a4e203fe8e8ed933f5b8f.png http//lostpic.net/thumbs_images/2/d/c/2dc266153b07a38e3671e5f8938ff1f1.png http//lostpic.net/thumbs_images/e/b/4/eb4426a52bdce5a1c13b73316b06c08a.png http//lostpic.net/thumbs_images/b/c/f/bcfd2a245f135c51d8c5bf62b7887032.png http//lostpic.net/thumbs_images/c/2/f/c2ffd24226672c80455f5b213a9aacd7.png

"MediaInfo"

Уникальный идентификатор : 219039653909067825955328921292720812205 (0xA4C980BA9791E8399EAAED385A5BB0AD)
Полное имя : Her.2013.DUAL.BDRip-AVC.x264.AC3.-HQCLUB.mkv
Формат : Matroska
Версия формата : Version 2
Размер файла : 3,48 Гбайт
Продолжительность : 2 ч. 5 м.
Общий поток : 3960 Кбит/сек
Дата кодирования : UTC 2014-12-16 17:38:42
Программа кодирования : mkvmerge v5.2.0 ('I can't explain') built on Dec 18 2011 18:12:03
Библиотека кодирования : libebml v1.2.3 + libmatroska v1.3.0

Видео
Идентификатор : 1
Формат : AVC
Формат/Информация : Advanced Video Codec
Профиль формата : High@L4.1
Параметр CABAC формата : Да
Параметр ReFrames формата : 11 кадров
Идентификатор кодека : V_MPEG4/ISO/AVC
Продолжительность : 2 ч. 5 м.
Битрейт : 2985 Кбит/сек
Ширина : 1138 пикселей
Высота : 614 пикселей
Соотношение сторон : 1,85:1
Режим частоты кадров : Постоянный
Частота кадров : 23,976 кадра/сек
Цветовое пространство : YUV
Субдискретизация насыщенности : 4:2:0
Битовая глубина : 8 бит
Тип развёртки : Прогрессивная
Бит/(Пиксели*Кадры) : 0.178
Размер потока : 2,62 Гбайт (75%)
Заголовок : Она / Her (2013) BDRip-AVC by HQCLUB [Elheym]
Библиотека кодирования : x264 core 142 r2491kMod 24e4fed
Настройки программы : cabac=1 / ref=11 / deblock=1:-3:-2 / analyse=0x3:0x133 / me=umh / subme=11 / psy=1 / fade_compensate=0.00 / psy_rd=1.00:0.00 / mixed_ref=1 / me_range=32 / chroma_me=1 / trellis=2 / 8x8dct=1 / cqm=0 / deadzone=21,11 / fast_pskip=1 / chroma_qp_offset=-4 / threads=6 / lookahead_threads=1 / sliced_threads=0 / nr=0 / decimate=1 / interlaced=0 / bluray_compat=0 / constrained_intra=0 / fgo=0 / bframes=14 / b_pyramid=2 / b_adapt=2 / b_bias=0 / direct=3 / weightb=1 / open_gop=0 / weightp=2 / keyint=230 / keyint_min=23 / scenecut=40 / intra_refresh=0 / rc_lookahead=40 / rc=crf / mbtree=0 / crf=17.6000 / qcomp=0.70 / qpmin=0 / qpmax=69 / qpstep=4 / vbv_maxrate=50000 / vbv_bufsize=62500 / crf_max=0.0 / nal_hrd=none / filler=0 / ip_ratio=1.40 / pb_ratio=1.30 / aq=3:0.90 / zones=172332,179916,b=0.25
Язык : English
Default : Да
Forced : Нет

Аудио #1
Идентификатор : 2
Формат : AC-3
Формат/Информация : Audio Coding 3
Расширение режима : CM (complete main)
Параметр Endianness формата : Big
Идентификатор кодека : A_AC3
Продолжительность : 2 ч. 5 м.
Вид битрейта : Постоянный
Битрейт : 448 Кбит/сек
Каналы : 6 каналов
Расположение каналов : Front: L C R, Side: L R, LFE
Частота : 48,0 КГц
Битовая глубина : 16 бит
Метод сжатия : С потерями
Размер потока : 403 Мбайт (11%)
Заголовок : АС3 5.1 @ 448 kbps - Dub, BD RUS
Язык : Russian
Default : Нет
Forced : Нет

Аудио #2
Идентификатор : 3
Формат : AC-3
Формат/Информация : Audio Coding 3
Расширение режима : CM (complete main)
Параметр Endianness формата : Big
Идентификатор кодека : A_AC3
Продолжительность : 2 ч. 5 м.
Вид битрейта : Постоянный
Битрейт : 448 Кбит/сек
Каналы : 6 каналов
Расположение каналов : Front: L C R, Side: L R, LFE
Частота : 48,0 КГц
Битовая глубина : 16 бит
Метод сжатия : С потерями
Размер потока : 403 Мбайт (11%)
Заголовок : АС3 5.1 @ 448 kbps - Original
Язык : English
Default : Нет
Forced : Нет

Текст #1
Идентификатор : 4
Формат : UTF-8
Идентификатор кодека : S_TEXT/UTF8
Идентификатор кодека/Информация : UTF-8 Plain Text
Заголовок : Full
Язык : Russian
Default : Нет
Forced : Нет

Текст #2
Идентификатор : 5
Формат : UTF-8
Идентификатор кодека : S_TEXT/UTF8
Идентификатор кодека/Информация : UTF-8 Plain Text
Заголовок : Forced
Язык : Russian
Default : Нет
Forced : Нет

Текст #3
Идентификатор : 6
Формат : UTF-8
Идентификатор кодека : S_TEXT/UTF8
Идентификатор кодека/Информация : UTF-8 Plain Text
Заголовок : Full
Язык : English
Default : Нет
Forced : Нет

Текст #4
Идентификатор : 7
Формат : UTF-8
Идентификатор кодека : S_TEXT/UTF8
Идентификатор кодека/Информация : UTF-8 Plain Text
Заголовок : Full SDH
Язык : English
Default : Нет
Forced : Нет

Меню
00:00:00.000 : :Chapter 1
00:10:02.560 : :Chapter 2
00:19:10.107 : :Chapter 3
00:32:12.680 : :Chapter 4
00:40:40.146 : :Chapter 5
00:52:38.196 : :Chapter 6
01:03:11.454 : :Chapter 7
01:12:45.027 : :Chapter 8
01:20:36.873 : :Chapter 9
01:30:02.105 : :Chapter 10
01:41:40.010 : :Chapter 11
01:50:33.293 : :Chapter 12
01:57:32.670 : :Chapter 13
02:05:50.167 : :Chapter 14

"x264 log"

x264 [info]: frame I:1095 Avg QP:13.52 size: 94585
x264 [info]: frame P:32202 Avg QP:15.50 size: 37337
x264 [info]: frame B:147732 Avg QP:16.25 size: 10716

x264 [info]: consecutive B-frames: 0.9% 1.4% 3.9% 14.7% 11.7% 32.4% 7.3% 15.9% 2.4% 1.1% 1.0% 5.0% 0.7% 0.6% 0.8%

x264 [info]: ref P L0: 40.7% 6.9% 18.8% 7.3% 7.1% 4.7% 4.8% 2.4% 2.7% 2.1% 2.3% 0.2% 0.0%
x264 [info]: ref B L0: 66.4% 13.1% 6.7% 3.9% 2.8% 2.5% 2.0% 1.4% 0.8% 0.4%
x264 [info]: ref B L1: 92.3% 7.7%


Ссылки для скачивания:

http//bt.hqclub.net/files/ok.png Торрент: Она / Her (2013) BDRip-AVC

Лучшая онлайн игра!


Публикация материалов сайта на сторонних ресурсах возможна только в неизменном виде.


Обсудить релиз на форуме

Вас также может заинтересовать:


  • 5
 (Голосов: 1)


Распечатать новость на принтере Мелодрама, Драма, Фантастика

КОММЕНТАРИИ

 №1. ru4lan

Статус: Кинокритик | Новостей: 0 | Комментариев: 2736
ru4lan супер размер и формат, спасибо!
~~~

17.12.2014 - 23:48   цитировать