Вас Приветствует Релиз-группа HQCLUB


Помощь ресурсу, очень ВАЖНО!!!



.


WELCOME
Добро пожаловать в наше интернет - сообщество!

Всех нас объединяет одна страсть - страсть к высококачественному кино. А это наш сайт. Ежедневно здесь мы публикуем десятки качественных, свежих, а порой и эксклюзивных релизов, которые Вы можете скачать совершенно бесплатно и без каких-либо регистраций. Посему рекомендуем Вам добавить HQClub себе в закладки, а также подписаться на нашу ленту новостей, чтобы всегда быть в курсе всех событий. Ну а если Вы такой же синий фил, как и мы, то милости просим на наш форум. И в заключение, попробуйте зарегистрироваться, ведь не так это и сложно и займет всего лишь пару минут! Вот увидите, Вам у нас понравится и Вы вольетесь в наш дружный коллектив! Ну а пока - осматривайтесь = )
Мы рады Вам !





Чёрная Пантера / Black Panther (2018) BDRip 720p

Оформил: Sky™ | 27 мая 2018 - 16:30:40 | Комментариев: 1 | Обращений: 508 {bookmarks_news}

http//img12.lostpic.net/2018/05/27/619cfc4a60a39e7bb53aa55b25a6f51f.jpg



Информация о фильме:
Название: Чёрная Пантера
Оригинальное название: Black Panther
Год выхода: 2018
Жанр: фантастика, боевик, приключения
Режиссер: Райан Куглер
В ролях: Чедвик Боузман, Майкл Б. Джордан, Лупита Нионго, Данай Джекесай Гурира, Мартин Фриман, Дэниэл Калуя, Летишиа Райт, Уинстон Дьюк, Стерлинг К. Браун, Анджела Бассетт

О фильме: С первого взгляда можно решить, что Ваканда — обычная территория дикой Африки, но это не так. Здесь, в недрах пустынных земель, скрываются залежи уникального металла, способного поглощать вибрацию. Многие пытались добраться до него, разоряя всё на своём пути и принося смерть аборигенам, но каждый раз таинственный дух саванны — Чёрная Пантера — вставал на защиту угнетённых.
Спустя много лет беда снова приходит в Ваканду, и в этот раз враг заручился поддержкой современных технологий. Когда шансов почти не остаётся, Т`Чалла, молодой принц Ваканды, узнаёт, что именно ему предстоит возродить легенду и продолжить вечную борьбу, надев маску Чёрной Пантеры.

Да здравствует король



https//rating.kinopoisk.ru/623250.gif

Релиз от - http//hqclub.net/images/hqclub.png
Автор рипа: Sky™

Выпущено:
Продолжительность: 02:14:33
Перевод: Профессиональный (полное дублирование) BD EUR + Профессиональный (украинское полное дублирование) LeDoyen
Субтитры: Русские (форсированные, полные, SDH), Английские (форсированные, полные, SDH), Украинские (форсированные) (*.srt, отключаемые)
Сохранены оригинальные чаптеры как на Blu-ray.

Файл:
Формат: mkv
Качество: BDRip 720p (источник: http//lostpic.net/images/953a96a00e963ac6907f450837a55c1e.png / BD Remux / 1080p)
Видео: 1280x536 (2.40:1), 23.976 fps, X264@L4.1 ~5000 kbps avg, 0.301 bit/pixel
Аудио #1: 48 kHz, AC3 Dolby Digital, 3/2 (L,C,R,l,r) + LFE ch, ~640 kbps avg (RUS) BD EUR
Аудио #2: 48 kHz, AC3 Dolby Digital, 3/2 (L,C,R,l,r) + LFE ch, ~640 kbps avg (ENG)
Аудио #3: 48 kHz, AC3 Dolby Digital, 2 (L,R), ~192 kbps avg (UKR) LeDoyen

Размер: 6230.54 Mb
http//lostpic.net/images/1b899dddff9c84e7020a856612f5c646.png

MediaINFO
Общее
Уникальный идентификатор : 186594243419730623849279234331849589424 (0x8C60BE7C5EB187E8A476BDF7B30102B0)
Полное имя : C:\Users\Intel\Videos\Black.Panter\Black.Panther.2018.BDRip.720p.x264.AC3.-HQCLUB (1).mkv
Формат : Matroska
Версия формата : Version 4 / Version 2
Размер файла : 6,08 Гбайт
Продолжительность : 2 ч. 14 м.
Общий поток : 6474 Кбит/сек
Дата кодирования : UTC 2018-05-27 06:14:21
Программа кодирования : mkvmerge v13.0.0 ('The Juggler') 64bit
Библиотека кодирования : libebml v1.3.4 + libmatroska v1.4.5
DURATION : 02:10:25.193000000
NUMBER_OF_FRAMES : 68
NUMBER_OF_BYTES : 2042
_STATISTICS_WRITING_APP : mkvmerge v13.0.0 ('The Juggler') 64bit
_STATISTICS_WRITING_DATE_UTC : 2018-05-27 06:14:21
_STATISTICS_TAGS : BPS DURATION NUMBER_OF_FRAMES NUMBER_OF_BYTES

Видео
Идентификатор : 1
Формат : AVC
Формат/Информация : Advanced Video Codec
Профиль формата : High@L4.1
Параметр CABAC формата : Да
Параметр ReFrames формата : 12 кадров
Идентификатор кодека : V_MPEG4/ISO/AVC
Продолжительность : 2 ч. 14 м.
Битрейт : 5000 Кбит/сек
Ширина : 1280 пикселей
Высота : 536 пикселей
Соотношение сторон : 2,40:1
Частота кадров : 23,976 кадра/сек
Цветовое пространство : YUV
Субдискретизация насыщенности : 4:2:0
Битовая глубина : 8 бит
Тип развёртки : Прогрессивная
Бит/(Пиксели*Кадры) : 0.304
Размер потока : 4,58 Гбайт (75%)
Заголовок : Чёрная Пантера (2018) BDRip 720p | HQCLUB
Библиотека кодирования : x264 core 155 r2901 7d0ff22
Настройки программы : cabac=1 / ref=12 / deblock=1:-3:-3 / analyse=0x3:0x133 / me=umh / subme=11 / psy=1 / psy_rd=1.00:0.00 / mixed_ref=1 / me_range=32 / chroma_me=1 / trellis=2 / 8x8dct=1 / cqm=0 / deadzone=21,11 / fast_pskip=0 / chroma_qp_offset=-4 / threads=12 / lookahead_threads=3 / sliced_threads=0 / nr=0 / decimate=0 / interlaced=0 / bluray_compat=0 / constrained_intra=0 / bframes=13 / b_pyramid=2 / b_adapt=2 / b_bias=0 / direct=3 / weightb=1 / open_gop=0 / weightp=2 / keyint=240 / keyint_min=24 / scenecut=40 / intra_refresh=0 / rc_lookahead=40 / rc=2pass / mbtree=0 / bitrate=5000 / ratetol=1.0 / qcomp=0.60 / qpmin=10 / qpmax=51 / qpstep=4 / cplxblur=20.0 / qblur=0.5 / vbv_maxrate=62500 / vbv_bufsize=78125 / nal_hrd=none / filler=0 / ip_ratio=1.40 / pb_ratio=1.30 / aq=1:0.90

Аудио #1
Идентификатор : 2
Формат : AC-3
Формат/Информация : Audio Coding 3
Расширение режима : CM (complete main)
Идентификатор кодека : A_AC3
Продолжительность : 2 ч. 14 м.
Вид битрейта : Постоянный
Битрейт : 640 Кбит/сек
Каналы : 6 каналов
Расположение каналов : Front: L C R, Side: L R, LFE
Частота : 48,0 КГц
Битовая глубина : 16 бит
Метод сжатия : С потерями
Размер потока : 616 Мбайт (10%)
Заголовок : Полное дублирование
Язык : Russian

Аудио #2
Идентификатор : 3
Формат : AC-3
Формат/Информация : Audio Coding 3
Расширение режима : CM (complete main)
Идентификатор кодека : A_AC3
Продолжительность : 2 ч. 14 м.
Вид битрейта : Постоянный
Битрейт : 640 Кбит/сек
Каналы : 6 каналов
Расположение каналов : Front: L C R, Side: L R, LFE
Частота : 48,0 КГц
Битовая глубина : 16 бит
Метод сжатия : С потерями
Размер потока : 616 Мбайт (10%)
Заголовок : Оригинальная звуковая дорожка
Язык : English

Аудио #3
Идентификатор : 4
Формат : AC-3
Формат/Информация : Audio Coding 3
Расширение режима : CM (complete main)
Идентификатор кодека : A_AC3
Продолжительность : 2 ч. 14 м.
Вид битрейта : Постоянный
Битрейт : 192 Кбит/сек
Каналы : 2 канала
Расположение каналов : Front: L R
Частота : 48,0 КГц
Битовая глубина : 16 бит
Метод сжатия : С потерями
Размер потока : 185 Мбайт (3%)
Заголовок : Полное дублирование (LeDoyen)
Язык : Ukrainian

Текст #1
Идентификатор : 5
Формат : UTF-8
Идентификатор кодека : S_TEXT/UTF8
Идентификатор кодека/Информация : UTF-8 Plain Text
Заголовок : Форсированные
Язык : Russian

Текст #2
Идентификатор : 6
Формат : UTF-8
Идентификатор кодека : S_TEXT/UTF8
Идентификатор кодека/Информация : UTF-8 Plain Text
Заголовок : Полные
Язык : Russian

Текст #3
Идентификатор : 7
Формат : UTF-8
Идентификатор кодека : S_TEXT/UTF8
Идентификатор кодека/Информация : UTF-8 Plain Text
Заголовок : SDH
Язык : Russian

Текст #4
Идентификатор : 8
Формат : UTF-8
Идентификатор кодека : S_TEXT/UTF8
Идентификатор кодека/Информация : UTF-8 Plain Text
Заголовок : Форсированные
Язык : English

Текст #5
Идентификатор : 9
Формат : UTF-8
Идентификатор кодека : S_TEXT/UTF8
Идентификатор кодека/Информация : UTF-8 Plain Text
Заголовок : Полные
Язык : English

Текст #6
Идентификатор : 10
Формат : UTF-8
Идентификатор кодека : S_TEXT/UTF8
Идентификатор кодека/Информация : UTF-8 Plain Text
Заголовок : SDH
Язык : English

Текст #7
Идентификатор : 11
Формат : UTF-8
Идентификатор кодека : S_TEXT/UTF8
Идентификатор кодека/Информация : UTF-8 Plain Text
Заголовок : Форсированные
Язык : Ukrainian

Меню
00:00:00.000 : en:00:00:00.000
00:06:56.290 : en:00:06:56.290
00:12:02.804 : en:00:12:02.804
00:19:12.358 : en:00:19:12.358
00:28:32.961 : en:00:28:32.961
00:33:11.698 : en:00:33:11.698
00:40:57.496 : en:00:40:57.496
00:48:34.036 : en:00:48:34.036
00:53:46.097 : en:00:53:46.097
01:01:57.338 : en:01:01:57.338
01:08:33.024 : en:01:08:33.024
01:16:46.768 : en:01:16:46.768
01:22:24.021 : en:01:22:24.021
01:31:21.434 : en:01:31:21.434
01:41:15.359 : en:01:41:15.359
01:50:56.483 : en:01:50:56.483
01:59:16.940 : en:01:59:16.940
02:02:43.646 : en:02:02:43.646

x264 log
---[Information] [27.05.2018 3:32:21] x264 [info]: frame I:1734 Avg QP:13.72 size:124956
---[Information] [27.05.2018 3:32:21] x264 [info]: frame P:52893 Avg QP:15.89 size: 47678
---[Information] [27.05.2018 3:32:21] x264 [info]: frame B:138935 Avg QP:17.09 size: 16600
---[Information] [27.05.2018 3:32:21] x264 [info]: consecutive B-frames: 5.6% 7.5% 13.7% 22.4% 17.4% 26.1% 4.0% 1.0% 0.9% 0.6% 0.3% 0.2% 0.2% 0.2%
---[Information] [27.05.2018 3:32:21] x264 [info]: mb I I16..4: 4.1% 75.5% 20.4%
---[Information] [27.05.2018 3:32:21] x264 [info]: mb P I16..4: 1.1% 16.5% 2.1% P16..4: 25.9% 31.6% 14.6% 3.1% 0.4% skip: 4.8%
---[Information] [27.05.2018 3:32:21] x264 [info]: mb B I16..4: 0.1% 2.1% 0.3% B16..8: 30.3% 25.5% 5.9% direct: 7.5% skip:28.2% L0:42.5% L1:39.1% BI:18.3%


http//img12.lostpic.net/2018/05/27/58231442a7ff9522a264fbd4e9305509.th.png http//img12.lostpic.net/2018/05/27/5d853d13b2b63630d5abce52e7516ca8.th.png http//img12.lostpic.net/2018/05/27/22661cbe3728168ecfff5b3efa246bcc.th.png http//img12.lostpic.net/2018/05/27/765fa645b23d2518d39a1907c0ed8079.th.png http//img12.lostpic.net/2018/05/27/a2290d94da540d4f9e4e1177f86898.th.png http//img12.lostpic.net/2018/05/27/364c89ab5e390901b34edb6e21df3f6c.th.png http//img12.lostpic.net/2018/05/27/3bc58b6d287090132dea7baa7720b9fb.th.png http//img12.lostpic.net/2018/05/27/37b23fdd5ddea4fcd0da208a40b8c65d.th.png http//img12.lostpic.net/2018/05/27/5a6ebf85c670c9615d3a6ffd67d2b6c9.th.png http//img12.lostpic.net/2018/05/27/e7ab942984a99305e8ebaf8c84c1523e.th.png http//img12.lostpic.net/2018/05/27/a45a501c78e3fe2c4fdf76d18413d7.th.png http//img12.lostpic.net/2018/05/27/d3a6c13c12f44d473debb6eafb2ba461.th.png

Ссылки для скачивания:

http//bt.hqclub.net/files/ok.png Торрент: Чёрная Пантера / Black Panther (2018) BDRip 720p


Публикация материалов сайта на сторонних ресурсах возможна только в неизменном виде.


Обсудить релиз на форуме

Вас также может заинтересовать:


  • 5
 (Голосов: 1)


Распечатать новость на принтере
Обновлено: 18.06.2018 - 05:53

КОММЕНТАРИИ

 №1. кит

Статус: Кинокритик | Новостей: 0 | Комментариев: 384
кит Sky™ ay az

27.05.2018 - 21:32   цитировать