Вас Приветствует Релиз-группа HQCLUB


Помощь ресурсу, очень ВАЖНО!!!



.


WELCOME
Добро пожаловать в наше интернет - сообщество!

Всех нас объединяет одна страсть - страсть к высококачественному кино. А это наш сайт. Ежедневно здесь мы публикуем десятки качественных, свежих, а порой и эксклюзивных релизов, которые Вы можете скачать совершенно бесплатно и без каких-либо регистраций. Посему рекомендуем Вам добавить HQClub себе в закладки, а также подписаться на нашу ленту новостей, чтобы всегда быть в курсе всех событий. Ну а если Вы такой же синий фил, как и мы, то милости просим на наш форум. И в заключение, попробуйте зарегистрироваться, ведь не так это и сложно и займет всего лишь пару минут! Вот увидите, Вам у нас понравится и Вы вольетесь в наш дружный коллектив! Ну а пока - осматривайтесь = )
Мы рады Вам !





Стрингер / Nightcrawler (2014) BDRip-AVC

Оформил: Elheym | 27 июня 2015 - 22:31:05 | Обращений: 842 {bookmarks_news}

http//lostpic.net/orig_images/e/d/2/ed24bb4a98e2680c1e793af254c69ea8.png

Информация о фильме:
Название: Стрингер
Оригинальное название: Nightcrawler
Год выхода: 2014
Жанр: триллер, криминал
Режиссер: Дэн Гилрой / Dan Gilroy
В ролях: Джейк Джилленхол, Рене Руссо, Риз Ахмед, Билл Пэкстон, Майкл Пападжон, Марко Родригес, Джеймс Хуанг, Кент Шокнек, Пэт Харви, Шэрон Тэй

О фильме: Луи Блум пытается найти работу. После того как он видит, как любительская съемочная группа снимает автомобильную аварию, он меняет ворованный велосипед на камеру и снимает последствия угона автомобиля, чтобы продать местной телевизионной компании. Директор новостей Нина покупает запись и убеждает его продолжить работу. Вскоре становится ясно, что ради по-настоящему стоящего материала Луи не остановится ни перед чем…

«Ночью город сияет ярче»



http//rating.kinopoisk.ru/760815.gif http//tracker.0day.kiev.ua/imdb/imdb_tt2872718.gif

Релиз от - http//hqclub.net/images/hqclub.png
Автор рипа: Elheym

Выпущено: США ‖ Bold Films, Nightcrawler, Sierra Pictures (III)
Продолжительность: 01:58:05
Перевод: Профессиональный (многоголосый, закадровый) Омикрон
Оригинальная аудиодорожка: английская
Субтитры: русские (полные: Матвеев**), английские (полные, SDH, SDH цветные)
Главы: присутствуют, сохранены оригинальные

Дополнительные аудиодорожки:
+ Авторский (одноголосый, закадровый) Ю. Сербин (альтернативная ссылка: ~384 kbps avg)
+ Одноголосый (закадровый) А. Матвеев aka Doctor_Joker (альтернативная ссылка: ~384 kbps avg)
+ Одноголосый (закадровый) Д. Есарев (альтернативная ссылка: ~384 kbps avg)
+ Профессиональный (многоголосый, закадровый) украинский [ Цікава ідея ] (альтернативная ссылка: ~384 kbps avg)

Файл:
Формат: MKV
Качество: BDRip-AVC (источник: http//i28.fastpic.ru/big/2011/1013/a8/a3d28e80c9544f4c572189fc892ea8.gif / Blu-ray Custom [NIGHTCRAWLER_2014_HDCLUB] / 1080p)
Видео: 1152x480 (2.40:1), 23.976 fps, MPEG-4 AVC, ~3500 kbps avg, 0.264 bit/pixel
Аудио #1: 48 kHz, AC3 Dolby Digital, 3/2 (L,C,R,l,r) + LFE ch, ~448 kbps avg (MVO.OMICRON)
Аудио #2: 48 kHz, AC3 Dolby Digital, 3/2 (L,C,R,l,r) + LFE ch, ~448 kbps avg (ENG)
Аудио #3: 48 kHz, AC3 Dolby Digital, 3/2 (L,C,R,l,r) + LFE ch, ~448 kbps avg (AVO.SERBIN) (отдельно)
Аудио #4: 48 kHz, AC3 Dolby Digital, 3/2 (L,C,R,l,r) + LFE ch, ~448 kbps avg (VO.MATVEEV) (отдельно)
Аудио #5: 48 kHz, AC3 Dolby Digital, 3/2 (L,C,R,l,r) + LFE ch, ~448 kbps avg (VO.ESAREV) (отдельно)
Аудио #6: 48 kHz, AC3 Dolby Digital, 3/2 (L,C,R,l,r) + LFE ch, ~448 kbps avg (UKR.MVO) (отдельно)
Размер: 3.63 GB
Сэмпл: скачать

http//lostpic.net/thumbs_images/d/3/8/d3885a170cc035f3ed7465e39f082e.png http//lostpic.net/thumbs_images/b/b/3/bb3338d40e1df42e71cf52536e376552.png http//lostpic.net/thumbs_images/1/9/5/195412921af0f2f73c69fbd5a0d06337.png http//lostpic.net/thumbs_images/c/9/b/c9bec50df0df2d669df88ce2db33e7ab.png http//lostpic.net/thumbs_images/0/6/9/069cb9aba7ac412ee267f5ac0eff6aa6.png http//lostpic.net/thumbs_images/0/3/3/033bdd68515a2781af9944552559ffff.png

"MediaInfo"

Уникальный идентификатор : 252344275425945150310067491302666669715 (0xBDD7BD58A33B3CEEBC9EB097CEB80E93)
Полное имя : Nightcrawler.2014.DUAL.BDRip-AVC.x264.AC3.-HQCLUB.mkv
Формат : Matroska
Версия формата : Version 2
Размер файла : 3,63 Гбайт
Продолжительность : 1 ч. 58 м.
Общий поток : 4399 Кбит/сек
Название фильма : Стрингер / Nightcrawler (2014) BDRip-AVC by HQCLUB [Elheym]
Дата кодирования : UTC 2015-06-27 19:06:10
Программа кодирования : mkvmerge v5.2.0 ('I can't explain') built on Dec 18 2011 18:12:03
Библиотека кодирования : libebml v1.2.3 + libmatroska v1.3.0
Attachements : Cover.png

Видео
Идентификатор : 1
Формат : AVC
Формат/Информация : Advanced Video Codec
Профиль формата : High@L4
Параметр CABAC формата : Да
Параметр ReFrames формата : 14 кадров
Идентификатор кодека : V_MPEG4/ISO/AVC
Продолжительность : 1 ч. 58 м.
Битрейт : 3500 Кбит/сек
Ширина : 1152 пикселя
Высота : 480 пикселей
Соотношение сторон : 2,40:1
Режим частоты кадров : Постоянный
Частота кадров : 23,976 кадра/сек
Цветовое пространство : YUV
Субдискретизация насыщенности : 4:2:0
Битовая глубина : 8 бит
Тип развёртки : Прогрессивная
Бит/(Пиксели*Кадры) : 0.264
Размер потока : 2,82 Гбайт (78%)
Заголовок : Стрингер / Nightcrawler (2014) BDRip-AVC by HQCLUB [Elheym]
Библиотека кодирования : x264 core 146 r0+2586 e393126 t_mod_Custom [8-bit@all X86_64]
Настройки программы : cabac=1 / ref=14 / deblock=1:-3:-2 / analyse=0x3:0x113 / me=umh / subme=9 / psy=1 / fade_compensate=0.00 / psy_rd=1.05:0.05 / mixed_ref=1 / me_range=32 / chroma_me=1 / trellis=2 / 8x8dct=1 / cqm=0 / deadzone=18,11 / fast_pskip=0 / chroma_qp_offset=-3 / threads=6 / lookahead_threads=2 / sliced_threads=0 / nr=0 / decimate=0 / interlaced=0 / bluray_compat=0 / constrained_intra=0 / fgo=2 / bframes=14 / b_pyramid=2 / b_adapt=2 / b_bias=0 / direct=3 / weightb=1 / open_gop=0 / weightp=2 / keyint=240 / keyint_min=23 / scenecut=40 / intra_refresh=0 / rc_lookahead=80 / rc=2pass / mbtree=0 / bitrate=3500 / ratetol=1.0 / qcomp=0.80 / qpmin=0:0:0 / qpmax=69:69:69 / qpstep=4 / cplxblur=20.0 / qblur=0.5 / vbv_maxrate=20000 / vbv_bufsize=25000 / nal_hrd=none / filler=0 / ip_ratio=1.40 / pb_ratio=1.24 / aq=2:0.50 / aq-sensitivity=10.00 / aq-factor=1.00:1.00:1.00 / aq2=0 / aq3=4:[0.50:0.50]:[0.50:0.50]:[0.50:0.50]:[0.50:0.50] / aq3-sensitivity=15.00 / aq3-factor=[1.00:1.00]:[1.00:1.00]:[1.00:1.00] / aq3-boundary=192:64:24
Язык : English
Default : Да
Forced : Нет

Аудио #1
Идентификатор : 2
Формат : AC-3
Формат/Информация : Audio Coding 3
Расширение режима : CM (complete main)
Параметр Endianness формата : Big
Идентификатор кодека : A_AC3
Продолжительность : 1 ч. 58 м.
Вид битрейта : Постоянный
Битрейт : 448 Кбит/сек
Каналы : 6 каналов
Расположение каналов : Front: L C R, Side: L R, LFE
Частота : 48,0 КГц
Метод сжатия : С потерями
Размер потока : 378 Мбайт (10%)
Заголовок : АС3 5.1 @ 448 kbps - MVO, Omicron
Язык : Russian
Default : Нет
Forced : Нет

Аудио #2
Идентификатор : 3
Формат : AC-3
Формат/Информация : Audio Coding 3
Расширение режима : CM (complete main)
Параметр Endianness формата : Big
Идентификатор кодека : A_AC3
Продолжительность : 1 ч. 58 м.
Вид битрейта : Постоянный
Битрейт : 448 Кбит/сек
Каналы : 6 каналов
Расположение каналов : Front: L C R, Side: L R, LFE
Частота : 48,0 КГц
Метод сжатия : С потерями
Размер потока : 378 Мбайт (10%)
Заголовок : АС3 5.1 @ 448 kbps - Original
Язык : English
Default : Нет
Forced : Нет

Текст #1
Идентификатор : 4
Формат : UTF-8
Идентификатор кодека : S_TEXT/UTF8
Идентификатор кодека/Информация : UTF-8 Plain Text
Заголовок : Full, Matveev [Uncensored]
Язык : Russian
Default : Нет
Forced : Нет

Текст #2
Идентификатор : 5
Формат : UTF-8
Идентификатор кодека : S_TEXT/UTF8
Идентификатор кодека/Информация : UTF-8 Plain Text
Заголовок : Full
Язык : English
Default : Нет
Forced : Нет

Текст #3
Идентификатор : 6
Формат : UTF-8
Идентификатор кодека : S_TEXT/UTF8
Идентификатор кодека/Информация : UTF-8 Plain Text
Заголовок : SDH
Язык : English
Default : Нет
Forced : Нет

Текст #4
Идентификатор : 7
Формат : UTF-8
Идентификатор кодека : S_TEXT/UTF8
Идентификатор кодека/Информация : UTF-8 Plain Text
Заголовок : SDH Colored
Язык : English
Default : Нет
Forced : Нет

Меню
00:00:00.000 : :Chapter 01
00:06:23.591 : :Chapter 02
00:11:21.889 : :Chapter 03
00:16:14.932 : :Chapter 04
00:23:48.260 : :Chapter 05
00:30:45.301 : :Chapter 06
00:36:26.642 : :Chapter 07
00:42:41.141 : :Chapter 08
00:46:51.975 : :Chapter 09
00:53:12.314 : :Chapter 10
01:00:49.354 : :Chapter 11
01:07:23.039 : :Chapter 12
01:13:00.918 : :Chapter 13
01:18:18.068 : :Chapter 14
01:25:00.720 : :Chapter 15
01:29:18.686 : :Chapter 16
01:36:10.848 : :Chapter 17
01:44:48.573 : :Chapter 18
01:48:30.712 : :Chapter 19
01:53:38.311 : :Chapter 20
01:57:57.862 : :Chapter 21

"x264 log"

x264 [info]: frame I:1258 Avg QP:16.09 size: 95159
x264 [info]: frame P:33886 Avg QP:18.06 size: 32019
x264 [info]: frame B:134733 Avg QP:19.17 size: 14062

x264 [info]: consecutive B-frames: 1.7% 2.2% 9.1% 9.3% 13.7% 46.3% 7.0% 2.0% 2.2% 1.2% 1.6% 1.2% 1.1% 0.9% 0.6%

x264 [info]: ref P L0: 44.8% 7.6% 16.4% 6.7% 5.5% 4.4% 3.7% 1.9% 2.2% 1.5% 1.5% 1.3% 1.2% 1.2% 0.2% 0.0%
x264 [info]: ref B L0: 62.7% 13.5% 7.6% 3.8% 3.0% 2.5% 2.0% 1.2% 1.2% 0.9% 0.9% 0.5% 0.2%
x264 [info]: ref B L1: 89.2% 10.8%


Цитата:

Перевод и озвучка "Омикрон" выполнены в рамках сервиса "Озвучивание". Спонсоры: Merwos, andruhan, rubak, Fenix_Zz, rden, vadiz, Ravox, The_EviL, PoHHaN, UraniUm, w15, dfghrul, Pertcev, kirill_sky, Fireware, walledol, Maike, anton48, Be_Cos, Bolt4445, Max_U, october2, urvakanner, Coolioner, SANDOR, 3gas, bibendumm, dudrin, joshua123, KeTroY, sum, EgOr1997, alibabay911.
Перевод Юрия Сербина выполнены в рамках сервиса "Озвучивание". Спонсоры: xRym, MyxAmoP, TPB, gelom, lemonarium, tambov68, Ex1l, exact, Luka69, gross1978, mercyful_fate, whip93, Tagansky, нокомент, Semvlk, EgOr1997, save2x2.
В переводах Ю. Сербина, А. Матвеева и Д. Есарева содержится ненормативная лексика.
** - содержит ненормативную лексику.


Ссылки для скачивания:

http//bt.hqclub.net/files/ok.png Торрент: Стрингер / Nightcrawler (2014) BDRip-AVC

Лучшая онлайн игра!


Публикация материалов сайта на сторонних ресурсах возможна только в неизменном виде.


Обсудить релиз на форуме

Вас также может заинтересовать:


  • 5
 (Голосов: 2)


Распечатать новость на принтере
Обновлено: 3.07.2015 - 19:44