Вас Приветствует Релиз-группа HQCLUB


Помощь ресурсу, очень ВАЖНО!!!



.


WELCOME
Добро пожаловать в наше интернет - сообщество!

Всех нас объединяет одна страсть - страсть к высококачественному кино. А это наш сайт. Ежедневно здесь мы публикуем десятки качественных, свежих, а порой и эксклюзивных релизов, которые Вы можете скачать совершенно бесплатно и без каких-либо регистраций. Посему рекомендуем Вам добавить HQClub себе в закладки, а также подписаться на нашу ленту новостей, чтобы всегда быть в курсе всех событий. Ну а если Вы такой же синий фил, как и мы, то милости просим на наш форум. И в заключение, попробуйте зарегистрироваться, ведь не так это и сложно и займет всего лишь пару минут! Вот увидите, Вам у нас понравится и Вы вольетесь в наш дружный коллектив! Ну а пока - осматривайтесь = )
Мы рады Вам !





Матрица: Трилогия / The Matrix: Trilogy (1999-2003) BDRip 720p

Оформил: Rensler | 29 сентября 2016 - 17:47:19 | Комментариев: 2 | Обращений: 664 {bookmarks_news}

Матрица / The Matrix (1999) BDRip 720p

http//img10.lostpic.net/2016/09/26/2f34eaed5de4f2364669c63e956ced.png

Информация о фильме
[b]Название:
Матрица
Оригинальное название: The Matrix
Год выхода: 1999
Жанр: Фантастика, Боевик, Приключения
В ролях: Киану Ривз (Neo), Лоренс Фишбёрн (Morpheus), Кэрри-Энн Мосс (Trinity), Хьюго Уивинг (Agent Smith), Джо Пантольяно (Cypher), Глория Фостер (Oracle), Маркус Чонг (Tank), Джулиан Араханга (Apoc), Мэтт Доран (Mouse), Белинда МакКлори (Switch), Энтони Рэй Паркер (Dozer), Пол Годдард (Agent Brown)
Продюсер: Джоэл Силвер, Брюс Берман, Дэвид Форбс
Режиссёр: Лэрри Вачовски / Larry Wachowski, Энди Вачовски /Andy Wachowski

О фильме:
Жизнь Томаса Андерсона разделена на две части: днём он самый обычный офисный работник, получающий нагоняи от начальства, а ночью превращается в хакера по имени Нео, и нет места в сети, куда он не смог бы дотянуться. Но однажды всё меняется - герой, сам того не желая, узнаёт страшную правду: всё, что его окружает - не более, чем иллюзия, Матрица, а люди - всего лишь источник питания для искусственного интеллекта, поработившего человечество. И только Нео под силу изменить расстановку сил в этом ставшем вдруг чужим и страшным мире.

«Добро пожаловать в реальный мир»



Топ250: 29
User Rating: 8,4/10 (279 980 votes)
IMDB: 8,7/10 (1 211 712 votes)

Релиз от - http//lostpic.net/images/2015/09/27/68f6040cf6d8c2a9ae7072059386b6f9.png
Автор рипа: Rensler

Выпущено: США, Австралия
Студия: Groucho II Film Partnership, Silver Pictures, Village Roadshow Pictures, Warner Bros. Pictures Co.
Продолжительность: 02:16:17
Перевод:
• Профессиональный (полное дублирование) BD CEE
Оригинальная аудиодорожка: Английская
Субтитры: Русские (полные х 2), Английские (полные, SDH цветные)
Главы: Сохранены чаптеры с оригинального Blu-ray Disc

Дополнительные аудиодорожки:
+ Профессиональный (многоголосый, закадровый) «Неизвестно»
+ Профессиональный (двухголосый, закадровый) «П.Гланц и И.Королёва»
+ Профессиональный (многоголосый, закадровый) «НТВ»
+ Профессиональный (двухголосый, закадровый) «TV1000»
+ Авторский (одноголосый, закадровый) «C. Визгунов»
+ Авторский (одноголосый, закадровый) «А. Дольский "поздний"»
+ Авторский (одноголосый, закадровый) «А. Дольский "ранний"»
+ Авторский (одноголосый, закадровый) «диктор CDV A.Латышев»
+ Авторский (одноголосый, закадровый) «А. Гаврилов»
+ Авторский (одноголосый, закадровый) «Ю. Живов»
+ Авторский (одноголосый, закадровый) «А. Кашкин»
+ Авторский (одноголосый, закадровый) «пародийное озвучивание Гоблина "Божья Искра"»
+ Авторский (одноголосый, закадровый) «перевод Д. Пучкова "Полный Пэ"»

Файл:
Формат: MKV
Качество: BDRip 720p (источник: BLUEBIRD / Blu-ray Disc)
Видео: 1280x532 (0% AR dist.) (2,40:1) at 23.976, x264@L4.1 ~ 6815 kbps avg, 0.421 bit/pixel
Аудио#01: 48 kHz/16-bit, AC3 Dolby Digital, 3/2 (L,C,R,l,r) + LFE ch, ~ 640 kbps avg | RUS, Blu-ray
Аудио#02: 48 kHz/16-bit, AC3 Dolby Digital, 3/2 (L,C,R,l,r) + LFE ch, ~ 640 kbps avg | ENG
Аудио#03: 48 kHz/16-bit, AC3 Dolby Digital, 3/2 (L,C,R,l,r) + LFE ch, ~ 640 kbps avg | RUS, « MVO Неизвестно»(отдельно)
Аудио#04: 48 kHz/16-bit, AC3 Dolby Digital, 3/2 (L,C,R,l,r) + LFE ch, ~ 640 kbps avg | RUS, «П.Гланц и И.Королёва» (отдельно)
Аудио#05: 48 kHz/16-bit, AC3 Dolby Digital, 2/0 (L,R), ~ 192 kbps avg | RUS, «НТВ/РТР» (отдельно)
Аудио#06: 48 kHz/16-bit, AC3 Dolby Digital, 2/0 (L,R), ~ 192 kbps avg | RUS, «TV1000» (отдельно)
Аудио#07: 48 kHz/16-bit, AC3 Dolby Digital, 2/0 (L,R), ~ 192 kbps avg | RUS, «C. Визгунов» (отдельно)
Аудио#08: 48 kHz/16-bit, AC3 Dolby Digital, 2/0 (L,R), ~ 192 kbps avg | RUS, «А. Дольский "поздний"» (отдельно)
Аудио#09: 48 kHz/16-bit, AC3 Dolby Digital, 2/0 (L,R), ~ 192 kbps avg | RUS, «А. Дольский "ранний"» (отдельно)
Аудио#10: 48 kHz/16-bit, AC3 Dolby Digital, 3/2 (L,C,R,l,r) + LFE ch, ~ 640 kbps avg | RUS, «A.Латышев» (отдельно)
Аудио#11: 48 kHz/16-bit, AC3 Dolby Digital, 3/2 (L,C,R,l,r) + LFE ch, ~ 640 kbps avg | RUS, «А. Гаврилов» (отдельно)
Аудио#12: 48 kHz/16-bit, AC3 Dolby Digital, 3/2 (L,C,R,l,r) + LFE ch, ~ 640 kbps avg | RUS, «Ю. Живов» (отдельно)
Аудио#13: 48 kHz/16-bit, AC3 Dolby Digital, 3/2 (L,C,R,l,r) + LFE ch, ~ 448 kbps avg | RUS, «А. Кашкин» (отдельно)
Аудио#14: 48 kHz/16-bit, AC3 Dolby Digital, 3/2 (L,C,R,l,r) + LFE ch, ~ 448 kbps avg | RUS, «пародийное озвучивание Гоблина "Божья Искра"» (отдельно)
Аудио#15: 48 kHz/16-bit, AC3 Dolby Digital, 3/2 (L,C,R,l,r) + LFE ch, ~ 640 kbps avg | RUS, «перевод Д. Пучкова "Полный Пэ"» (отдельно)
Размер: 7,76 GB (DVD-9)
Скачать: Семпл

"MI@logx.264"
logx.264 написал:

x264 [info]: frame I:1540 Avg QP:14.97 size: 96418
x264 [info]: frame P:41559 Avg QP:16.78 size: 51032
x264 [info]: frame B:142858 Avg QP:17.49 size: 29579
x264 [info]: consecutive B-frames: 3.6% 3.1% 6.3% 19.1% 16.9% 33.7% 7.1% 5.1% 1.6% 1.6% 1.2% 0.8%
x264 [info]: ref P L0: 39.5% 7.5% 17.9% 8.5% 7.2% 5.4% 4.9% 3.0% 2.9% 2.6% 0.5% 0.0%

MediaInfo написал:
Уникальный идентификатор : 209506956891876460441655387201519636486 (0x9D9D927A9F072234A57E37F0BFAE5006)
Полное имя : K: Matrix.1999.BluRay.720p.Rus.Eng.-HQCLUB.mkv
Формат : Matroska
Версия формата : Version 4 / Version 2
Размер файла : 7,76 Гбайт
Продолжительность : 2 ч. 16 м.
Общий поток : 8156 Кбит/сек
Название фильма : Матрица / The Matrix (1999) Blu-ray 720p
Дата кодирования : UTC 2016-09-18 18:01:48
Программа кодирования : mkvmerge v8.3.0 ('Over the Horizon') 64bit
Библиотека кодирования : libebml v1.3.1 + libmatroska v1.4.2
Attachements : Cover.png

Видео
Идентификатор : 1
Формат : AVC
Формат/Информация : Advanced Video Codec
Профиль формата : High@L4.1
Параметр CABAC формата : Да
Параметр ReFrames формата : 11 кадров
Идентификатор кодека : V_MPEG4/ISO/AVC
Продолжительность : 2 ч. 16 м.
Битрейт : 6875 Кбит/сек
Ширина : 1280 пикселей
Высота : 532 пикселя
Соотношение сторон : 2,40:1
Режим частоты кадров : Постоянный
Частота кадров : 23,976 кадра/сек
Цветовое пространство : YUV
Субдискретизация насыщенности : 4:2:0
Битовая глубина : 8 бит
Тип развёртки : Прогрессивная
Бит/(Пиксели*Кадры) : 0.421
Размер потока : 6,39 Гбайт (82%)
Заголовок : Release by Rensler
Библиотека кодирования : x264 core 148 r2692 64f4e24
Настройки программы : cabac=1 / ref=11 / deblock=1:-3:-3 / analyse=0x3:0x113 / me=umh / subme=11 / psy=1 / psy_rd=1.00:0.00 / mixed_ref=1 / me_range=48 / chroma_me=1 / trellis=2 / 8x8dct=1 / cqm=0 / deadzone=21,11 / fast_pskip=0 / chroma_qp_offset=-2 / threads=3 / lookahead_threads=1 / sliced_threads=0 / nr=0 / decimate=0 / interlaced=0 / bluray_compat=0 / constrained_intra=0 / bframes=11 / b_pyramid=2 / b_adapt=2 / b_bias=0 / direct=3 / weightb=1 / open_gop=0 / weightp=2 / keyint=230 / keyint_min=23 / scenecut=40 / intra_refresh=0 / rc_lookahead=60 / rc=2pass / mbtree=0 / bitrate=6875 / ratetol=1.0 / qcomp=0.80 / qpmin=0 / qpmax=69 / qpstep=4 / cplxblur=20.0 / qblur=0.5 / vbv_maxrate=50000 / vbv_bufsize=62500 / nal_hrd=none / filler=0 / ip_ratio=1.25 / pb_ratio=1.15 / aq=2:0.70
Язык : English

Аудио #1
Идентификатор : 2
Формат : AC-3
Формат/Информация : Audio Coding 3
Расширение режима : CM (complete main)
Параметр Endianness формата : Big
Идентификатор кодека : A_AC3
Продолжительность : 2 ч. 16 м.
Вид битрейта : Постоянный
Битрейт : 640 Кбит/сек
Каналы : 6 каналов
Расположение каналов : Front: L C R, Side: L R, LFE
Частота : 48,0 КГц
Метод сжатия : С потерями
Размер потока : 624 Мбайт (8%)
Заголовок : BD CEE
Язык : Russian
Default : Да
Forced : Нет

Аудио #2
Идентификатор : 3
Формат : AC-3
Формат/Информация : Audio Coding 3
Расширение режима : CM (complete main)
Параметр Endianness формата : Big
Идентификатор кодека : A_AC3
Продолжительность : 2 ч. 16 м.
Вид битрейта : Постоянный
Битрейт : 640 Кбит/сек
Каналы : 6 каналов
Расположение каналов : Front: L C R, Side: L R, LFE
Частота : 48,0 КГц
Метод сжатия : С потерями
Размер потока : 624 Мбайт (8%)
Заголовок : Original
Язык : English
Default : Нет
Forced : Нет

Текст #1
Идентификатор : 4
Формат : UTF-8
Идентификатор кодека : S_TEXT/UTF8
Идентификатор кодека/Информация : UTF-8 Plain Text
Заголовок : Full V1
Язык : Russian
Default : Нет
Forced : Нет

Текст #2
Идентификатор : 5
Формат : UTF-8
Идентификатор кодека : S_TEXT/UTF8
Идентификатор кодека/Информация : UTF-8 Plain Text
Заголовок : Full V2
Язык : Russian
Default : Нет
Forced : Нет

Текст #3
Идентификатор : 6
Формат : UTF-8
Идентификатор кодека : S_TEXT/UTF8
Идентификатор кодека/Информация : UTF-8 Plain Text
Заголовок : Full
Язык : English
Default : Нет
Forced : Нет

Текст #4
Идентификатор : 7
Формат : UTF-8
Идентификатор кодека : S_TEXT/UTF8
Идентификатор кодека/Информация : UTF-8 Plain Text
Заголовок : SDH colored
Язык : English
Default : Нет
Forced : Нет

Меню
00:00:00.000 : en:Chapter 01
00:03:25.789 : en:Chapter 02
00:06:35.645 : en:Chapter 03
00:09:42.665 : en:Chapter 04
00:11:58.301 : en:Chapter 05
00:16:47.423 : en:Chapter 06
00:21:33.542 : en:Chapter 07
00:25:08.590 : en:Chapter 08
00:28:51.146 : en:Chapter 09
00:32:25.193 : en:Chapter 10
00:35:21.870 : en:Chapter 11
00:38:40.902 : en:Chapter 12
00:44:22.577 : en:Chapter 13
00:46:33.541 : en:Chapter 14
00:48:57.852 : en:Chapter 15
00:53:31.291 : en:Chapter 16
00:56:32.139 : en:Chapter 17
00:59:01.288 : en:Chapter 18
01:01:08.582 : en:Chapter 19
01:05:16.496 : en:Chapter 20
01:07:46.813 : en:Chapter 21
01:12:33.432 : en:Chapter 22
01:17:49.582 : en:Chapter 23
01:21:03.108 : en:Chapter 24
01:25:05.350 : en:Chapter 25
01:29:45.130 : en:Chapter 26
01:31:27.565 : en:Chapter 27
01:37:25.256 : en:Chapter 28
01:41:04.976 : en:Chapter 29
01:44:20.337 : en:Chapter 30
01:47:00.497 : en:Chapter 31
01:50:18.529 : en:Chapter 32
01:52:56.687 : en:Chapter 33
01:56:36.907 : en:Chapter 34
01:58:49.372 : en:Chapter 35
02:02:27.423 : en:Chapter 36
02:05:41.784 : en:Chapter 37
02:08:46.802 : en:Chapter 38
02:09:30.262 : en:Chapter 39
02:11:20.164 : en:Chapter 40


http//img10.lostpic.net/2016/08/28/4075cab460b6a5d3a3aa5cd7eefde701.th.png http//img10.lostpic.net/2016/08/28/475b3bb3f11059617de80df420ffdffa.th.png http//img10.lostpic.net/2016/08/28/c80503a07f080ed712fc6c176c351bea.th.png http//img10.lostpic.net/2016/08/28/1265e7a56c199aa3a1afddc042ca01.th.png
http//img10.lostpic.net/2016/08/28/03c266246830531eb2330090a19ea2.th.png http//img10.lostpic.net/2016/08/28/f430ff67e86bb422205609f47902eee1.th.png http//img10.lostpic.net/2016/08/28/24e7f6b260592e41c1df3d2899990d38.th.png http//img10.lostpic.net/2016/08/28/6ec31d51a37cb7fc6e277f555c6505.th.png


-------------------------------------------------------------------------------------------------------------------------------------------------------------------------------------------------------------------------

Матрица: Перезагрузка / The Matrix Reloaded (2003) BDRip 720p

http//img10.lostpic.net/2016/09/26/790c27664eda7c58d027f13c069bdcfc.png

Информация о фильме
[b]Название:
Матрица: Перезагрузка
Оригинальное название: The Matrix Reloaded
Год выхода: 2003
Жанр: Фантастика, Боевик, Приключения
В ролях: Киану Ривз (Neo), Лоуренс Фишберн (Morpheus), Кэрри-Энн Мосс (Trinity), Моника Беллуччи (Persephone), Хьюго Уивинг (Agent Smith), Ламбер Вильсон (Merovingian), Энтони Вон (Ghost), Гарри Дж. Ленникс (Commander Lock), Рэндолл Дак Ким (The Keymaker), Глория Фостер (The Oracle), Колин Чоу (Seraph), Рэй Энтони (Power Station Guard), Йен Блисс (Bane), Хельмут Бакайтис (The Architect), Кристин Ану (Kali), Энди Арнесс (Police #2), Стив Бастони (Soren), Дон Бейти (Vector), Дэниэл Бернхард (Agent Johnson), Майкл Бадд (Zion Controller), Келли Батлер (Ice), Кристофер Кирби (Mauser), Мэтт МакКольм (Agent Thompson), Робин Невин (Councillor Dillard), Джада Пинкетт Смит (Niobe), Дэвид Робертс (Roland), Клэйтон Уотсон (Kid), Энтони Зербе (Councillor Hamann).
Продюсер: Джоэл Силвер, Брюс Берман, Дэвид Форбс
Режиссёр: Лэрри Вачовски / Larry Wachowski, Энди Вачовски /Andy Wachowski

О фильме:
Борцы за свободу Нео, Тринити и Морфеус продолжают руководить восстанием людей против Армии Машин. Для уничтожения системы репрессий и эксплуатации они вынуждены прибегнуть не только к арсеналу превосходного оружия, но и к своим выдающимся навыкам. Участие в миссии по спасению человеческой расы от ее полного истребления приносит им более глубокое понимание конструкции Матрицы и осознание центральной роли Нео в судьбе человечества.

«Одни машины помогают нам жить, другие – пытаются нас убить»



User Rating: 7,7/10 (114 354 votes)
IMDB: 7,2/10 (420 282 votes)

Релиз от - http//lostpic.net/images/2015/09/27/68f6040cf6d8c2a9ae7072059386b6f9.png
Автор рипа: Rensler

Выпущено: США, Австралия
Студия: Heineken Branded Entertainment, NPV Entertainment, Silver Pictures, Village Roadshow Pictures, Warner Bros. Pictures Co.
Продолжительность: 02:18:15
Перевод:
• Профессиональный (полное дублирование) BD CEE
Оригинальная аудиодорожка: Английская
Субтитры: Русские (полные х 2), Английские (полные, SDH)
Главы: Сохранены чаптеры с оригинального Blu-ray Disc

Дополнительные аудиодорожки:
+ Профессиональный (двухголосый, закадровый) «Неизвестно»
+ Профессиональный (двухголосый, закадровый) «П.Гланц и И.Королёва "ранний"»
+ Профессиональный (двухголосый, закадровый) «П.Гланц и И.Королёва "поздний"»
+ Профессиональный (двухголосый, закадровый) «TV1000»
+ Авторский (одноголосый, закадровый) «А. Гаврилов»
+ Авторский (одноголосый, закадровый) «Ю. Живов»
+ Авторский (одноголосый, закадровый) «Е. Рудой»

Файл:
Формат: MKV
Качество: BDRip 720p (источник: BLUEBIRD / Blu-ray Disc)
Видео: 1280x532 (0% AR dist.) (2,40:1) at 23.976, x264@L4.1 ~ 6760 kbps avg, 0.414 bit/pixel
Аудио#01: 48 kHz/16-bit, AC3 Dolby Digital, 3/2 (L,C,R,l,r) + LFE ch, ~ 640 kbps avg | RUS, Blu-ray «МОСФИЛЬМ-мастер»
Аудио#02: 48 kHz/16-bit, AC3 Dolby Digital, 3/2 (L,C,R,l,r) + LFE ch, ~ 640 kbps avg | ENG
Аудио#03: 48 kHz/16-bit, AC3 Dolby Digital, 3/2 (L,C,R,l,r) + LFE ch, ~ 640 kbps avg | RUS, «DVO Неизвестно» (отдельно)
Аудио#04: 48 kHz/16-bit, AC3 Dolby Digital, 3/2 (L,C,R,l,r) + LFE ch, ~ 640 kbps avg | RUS, «П.Гланц и И.Королёва "ранний"» (отдельно)
Аудио#05: 48 kHz/16-bit, AC3 Dolby Digital, 3/2 (L,C,R,l,r) + LFE ch, ~ 640 kbps avg | RUS, «П.Гланц и И.Королёва "поздний"» (отдельно)
Аудио#06: 48 kHz/16-bit, AC3 Dolby Digital, 2/0 (L,R), ~ 192 kbps avg | RUS, «TV1000» (отдельно)
Аудио#07: 48 kHz/16-bit, AC3 Dolby Digital, 3/2 (L,C,R,l,r) + LFE ch, ~ 640 kbps avg | RUS, «А. Гаврилов» (отдельно)
Аудио#08: 48 kHz/16-bit, AC3 Dolby Digital, 3/2 (L,C,R,l,r) + LFE ch, ~ 640 kbps avg | RUS, «Ю. Живов» (отдельно)
Аудио#09: 48 kHz/16-bit, AC3 Dolby Digital, 3/2 (L,C,R,l,r) + LFE ch, ~ 640 kbps avg | RUS, «А. Рудой» (отдельно)
Размер: 7,76 GB (DVD-9)
Скачать: Семпл

"MI@logx.264"
logx.264 написал:

x264 [info]: frame I:1851 Avg QP:14.66 size:103964
x264 [info]: frame P:42020 Avg QP:16.33 size: 51519
x264 [info]: frame B:155022 Avg QP:17.44 size: 30009
x264 [info]: consecutive B-frames: 2.3% 2.8% 7.5% 18.2% 16.3% 34.9% 5.9% 6.0% 1.8% 2.0% 0.9% 0.3%
x264 [info]: ref P L0: 43.8% 6.8% 16.7% 9.3% 6.9% 5.4% 4.3% 2.8% 2.2% 1.7% 0.1% 0.0%

MediaInfo написал:
Уникальный идентификатор : 211551796586404890478268734920421289805 (0x9F2764DC19BBE807A529C5D9276C2F4D)
Полное имя : K:\ Matrix.Perezagruzka.2003.BluRay.720p.Rus.Eng.-HQCLUB.mkv
Формат : Matroska
Версия формата : Version 4 / Version 2
Размер файла : 7,77 Гбайт
Продолжительность : 2 ч. 18 м.
Общий поток : 8043 Кбит/сек
Название фильма : Матрица: Перезагрузка / The Matrix Reloaded (2003) Blu-ray 720p
Дата кодирования : UTC 2016-09-29 09:02:38
Программа кодирования : mkvmerge v8.3.0 ('Over the Horizon') 64bit
Библиотека кодирования : libebml v1.3.1 + libmatroska v1.4.2
Attachements : Cover.png

Видео
Идентификатор : 1
Формат : AVC
Формат/Информация : Advanced Video Codec
Профиль формата : High@L4.1
Параметр CABAC формата : Да
Параметр ReFrames формата : 12 кадров
Идентификатор кодека : V_MPEG4/ISO/AVC
Продолжительность : 2 ч. 18 м.
Битрейт : 6760 Кбит/сек
Ширина : 1280 пикселей
Высота : 532 пикселя
Соотношение сторон : 2,40:1
Режим частоты кадров : Постоянный
Частота кадров : 23,976 кадра/сек
Цветовое пространство : YUV
Субдискретизация насыщенности : 4:2:0
Битовая глубина : 8 бит
Тип развёртки : Прогрессивная
Бит/(Пиксели*Кадры) : 0.414
Размер потока : 6,38 Гбайт (82%)
Заголовок : Release by Rensler
Библиотека кодирования : x264 core 148 r2692 64f4e24
Настройки программы : cabac=1 / ref=12 / deblock=1:-3:-3 / analyse=0x3:0x113 / me=umh / subme=11 / psy=1 / psy_rd=1.00:0.02 / mixed_ref=1 / me_range=48 / chroma_me=1 / trellis=2 / 8x8dct=1 / cqm=0 / deadzone=21,11 / fast_pskip=0 / chroma_qp_offset=-3 / threads=3 / lookahead_threads=1 / sliced_threads=0 / nr=0 / decimate=0 / interlaced=0 / bluray_compat=0 / constrained_intra=0 / bframes=12 / b_pyramid=2 / b_adapt=2 / b_bias=0 / direct=3 / weightb=1 / open_gop=0 / weightp=2 / keyint=230 / keyint_min=23 / scenecut=40 / intra_refresh=0 / rc_lookahead=60 / rc=2pass / mbtree=0 / bitrate=6760 / ratetol=1.0 / qcomp=0.80 / qpmin=0 / qpmax=69 / qpstep=4 / cplxblur=20.0 / qblur=0.5 / vbv_maxrate=62500 / vbv_bufsize=78125 / nal_hrd=none / filler=0 / ip_ratio=1.25 / pb_ratio=1.15 / aq=2:0.80
Язык : English
Default : Да
Forced : Нет

Аудио #1
Идентификатор : 2
Формат : AC-3
Формат/Информация : Audio Coding 3
Расширение режима : CM (complete main)
Параметр Endianness формата : Big
Идентификатор кодека : A_AC3
Продолжительность : 2 ч. 18 м.
Вид битрейта : Постоянный
Битрейт : 640 Кбит/сек
Каналы : 6 каналов
Расположение каналов : Front: L C R, Side: L R, LFE
Частота : 48,0 КГц
Метод сжатия : С потерями
Размер потока : 633 Мбайт (8%)
Заголовок : BD CEE
Язык : Russian
Default : Да
Forced : Нет

Аудио #2
Идентификатор : 3
Формат : AC-3
Формат/Информация : Audio Coding 3
Расширение режима : CM (complete main)
Параметр Endianness формата : Big
Идентификатор кодека : A_AC3
Продолжительность : 2 ч. 18 м.
Вид битрейта : Постоянный
Битрейт : 640 Кбит/сек
Каналы : 6 каналов
Расположение каналов : Front: L C R, Side: L R, LFE
Частота : 48,0 КГц
Метод сжатия : С потерями
Размер потока : 633 Мбайт (8%)
Заголовок : Original
Язык : English
Default : Нет
Forced : Нет

Текст #1
Идентификатор : 4
Формат : UTF-8
Идентификатор кодека : S_TEXT/UTF8
Идентификатор кодека/Информация : UTF-8 Plain Text
Заголовок : Full V1
Язык : Russian
Default : Нет
Forced : Нет

Текст #2
Идентификатор : 5
Формат : UTF-8
Идентификатор кодека : S_TEXT/UTF8
Идентификатор кодека/Информация : UTF-8 Plain Text
Заголовок : Full V2
Язык : Russian
Default : Нет
Forced : Нет

Текст #3
Идентификатор : 6
Формат : UTF-8
Идентификатор кодека : S_TEXT/UTF8
Идентификатор кодека/Информация : UTF-8 Plain Text
Заголовок : Full
Язык : English
Default : Нет
Forced : Нет

Текст #4
Идентификатор : 7
Формат : UTF-8
Идентификатор кодека : S_TEXT/UTF8
Идентификатор кодека/Информация : UTF-8 Plain Text
Заголовок : SDH
Язык : English
Default : Нет
Forced : Нет

Меню
00:00:00.000 : en:Chapter 01
00:03:50.230 : en:Chapter 02
00:08:55.368 : en:Chapter 03
00:12:16.903 : en:Chapter 04
00:16:24.317 : en:Chapter 05
00:19:43.182 : en:Chapter 06
00:23:29.408 : en:Chapter 07
00:27:26.812 : en:Chapter 08
00:32:01.253 : en:Chapter 09
00:33:43.188 : en:Chapter 10
00:37:57.442 : en:Chapter 11
00:40:55.620 : en:Chapter 12
00:43:44.956 : en:Chapter 13
00:50:42.706 : en:Chapter 14
00:55:08.472 : en:Chapter 15
01:00:03.099 : en:Chapter 16
01:02:49.766 : en:Chapter 17
01:08:52.295 : en:Chapter 18
01:13:06.882 : en:Chapter 19
01:16:21.410 : en:Chapter 20
01:20:31.827 : en:Chapter 20
01:22:47.129 : en:Chapter 21
01:26:12.501 : en:Chapter 22
01:29:52.887 : en:Chapter 23
01:32:50.899 : en:Chapter 24
01:37:10.825 : en:Chapter 25
01:40:51.379 : en:Chapter 26
01:44:57.791 : en:Chapter 27
01:48:12.152 : en:Chapter 28
01:52:25.572 : en:Chapter 29
01:55:42.936 : en:Chapter 30
01:57:37.550 : en:Chapter 31
02:01:51.471 : en:Chapter 32
02:04:18.451 : en:Chapter 33
02:07:04.116 : en:Chapter 34
02:16:29.681 : en:Chapter 35


http//img10.lostpic.net/2016/09/29/7171ba2af971c3a71f8067e00e4b00fa.th.jpg http//img10.lostpic.net/2016/09/29/6cf8f9dc4beabfd520a2c541ead53cf6.th.jpg http//img10.lostpic.net/2016/09/29/8d8e47de4376eccf913cf09e8f5b.th.jpg http//img10.lostpic.net/2016/09/29/eb5351b008fb93ad69971e9389795a70.th.jpg
http//img10.lostpic.net/2016/09/29/de1d26c27d9b24780ccb9077c19188.th.jpg http//img10.lostpic.net/2016/09/29/11fee096d9c1c7bf44211be6bd1ab2fe.th.jpg http//img10.lostpic.net/2016/09/29/685224c6a21bfd62797829d52e74f6.th.jpg http//img10.lostpic.net/2016/09/29/467fe558e3867265384361d3e53bc5a1.th.jpg


-------------------------------------------------------------------------------------------------------------------------------------------------------------------------------------------------------------------------

Матрица: Революция / The Matrix Revolutions (2003) BDRip 720p

http//img10.lostpic.net/2016/09/26/2433f921b37cff6bb91f255fb0709061.png

Информация о фильме
[b]Название:
Матрица: Революция
Оригинальное название: The Matrix Revolutions
Год выхода: 2003
Жанр: Фантастика, Боевик, Приключения
В ролях: Киану Ривз (Neo), Лоуренс Фишберн (Morpheus), Кэрри-Энн Мосс (Trinity), Моника Беллуччи (Persephone), Хьюго Уивинг (Agent Smith), Ламбер Вильсон (Merovingian), Энтони Вон (Ghost), Гарри Дж. Ленникс (Commander Lock), Рэндолл Дак Ким (The Keymaker), Глория Фостер (The Oracle), Колин Чоу (Seraph), Рэй Энтони (Power Station Guard), Йен Блисс (Bane), Хельмут Бакайтис (The Architect), Кристин Ану (Kali), Энди Арнесс (Police #2), Стив Бастони (Soren), Дон Бейти (Vector), Дэниэл Бернхард (Agent Johnson), Майкл Бадд (Zion Controller), Келли Батлер (Ice), Кристофер Кирби (Mauser), Мэтт МакКольм (Agent Thompson), Робин Невин (Councillor Dillard), Джада Пинкетт Смит (Niobe), Дэвид Робертс (Roland), Клэйтон Уотсон (Kid), Энтони Зербе (Councillor Hamann).
Продюсер: Джоэл Силвер, Брюс Берман, Дэвид Форбс
Режиссёр: Лэрри Вачовски / Larry Wachowski, Энди Вачовски /Andy Wachowski

О фильме:
Пока армия Машин пытается уничтожить Зион, его жители из последних сил держат оборону. Но удастся ли им предотвратить полное вторжение в город кишащей орды беспощадных машин до того, как Нео соберет все свои силы и положит конец войне?

«Все, что имеет начало, имеет и конец»



User Rating: 7,5/10 (99 154 votes)
IMDB: 6,7/10 (363 600 votes)

Релиз от - http//lostpic.net/images/2015/09/27/68f6040cf6d8c2a9ae7072059386b6f9.png
Автор рипа: Rensler

Выпущено: США, Австралия
Студия: NPV Entertainment, Silver Pictures, Village Roadshow Pictures, Warner Bros. Pictures Co.
Продолжительность: 02:09:16
Перевод:
• Профессиональный (полное дублирование) BD CEE
Оригинальная аудиодорожка: Английская
Субтитры: Русские (полные х 2), Английские (полные, SDH)
Главы: Сохранены чаптеры с оригинального Blu-ray Disc

Дополнительные аудиодорожки:
+ Профессиональный (многоголосый, закадровый) «Неизвестно»
+ Профессиональный (двухголосый, закадровый) «П.Гланц и И.Королёва»
+ Авторский (одноголосый, закадровый) «А. Гаврилов»
+ Авторский (одноголосый, закадровый) «Ю. Живов»

Качество: BDRip 720p (источник: BLUEBIRD / Blu-ray Disc)
Видео: 1280x532 (0% AR dist.) (2,40:1) at 23.976, x264@L4.1 ~ 7320 kbps avg, 0.448 bit/pixel
Аудио#01: 48 kHz/16-bit, AC3 Dolby Digital, 3/2 (L,C,R,l,r) + LFE ch, ~ 640 kbps avg | RUS, Blu-ray
Аудио#02: 48 kHz/16-bit, AC3 Dolby Digital, 3/2 (L,C,R,l,r) + LFE ch, ~ 640 kbps avg | ENG
Аудио#05: 48 kHz/16-bit, AC3 Dolby Digital, 3/2 (L,C,R,l,r) + LFE ch, ~ 640 kbps avg | RUS, «MVO Неизвестно» (отдельно)
Аудио#06: 48 kHz/16-bit, AC3 Dolby Digital, 3/2 (L,C,R,l,r) + LFE ch, ~ 640 kbps avg | RUS, «П.Гланц и И.Королёва» (отдельно)
Аудио#07: 48 kHz/16-bit, AC3 Dolby Digital, 3/2 (L,C,R,l,r) + LFE ch, ~ 640 kbps avg | RUS, «А. Гавриловв» (отдельно)
Аудио#08: 48 kHz/16-bit, AC3 Dolby Digital, 3/2 (L,C,R,l,r) + LFE ch, ~ 640 kbps avg | RUS, «Ю. Живов» (отдельно)
Размер: 7,76 GB (DVD-9)
Скачать: Семпл

"MI@logx.264"
logx.264 написал:

x264 [info]: frame I:1540 Avg QP:14.24 size:103726
x264 [info]: frame P:41559 Avg QP:16.54 size: 56215
x264 [info]: frame B:142858 Avg QP:17.20 size: 32191
x264 [info]: consecutive B-frames: 3.6% 3.1% 6.3% 19.1% 16.9% 33.7% 7.1% 5.1% 1.6% 1.6% 1.2% 0.8%
x264 [info]: ref P L0: 42.6% 6.5% 17.0% 9.5% 7.1% 5.6% 4.5% 2.9% 2.3% 1.8% 0.2% 0.0%

MediaInfo написал:
Уникальный идентификатор : 177728000113306537161488642199987785401 (0x85B52AF0D70D7931BA85D9F70E0D8EB9)
Полное имя : K:\RG Rensler\Rip' Release HQCLUB\The.Matrix.Trilogy.BluRay.720p.Rus.Eng.-HQCLUB\Matrix.Revolyuciya.2003.BluRay.720p.Rus.Eng.-HQCLUB.mkv
Формат : Matroska
Версия формата : Version 4 / Version 2
Размер файла : 7,77 Гбайт
Продолжительность : 2 ч. 9 м.
Общий поток : 8601 Кбит/сек
Название фильма : Матрица: Революция / The Matrix Revolutions (2003) Blu-ray 720p
Дата кодирования : UTC 2016-09-18 18:22:48
Программа кодирования : mkvmerge v8.3.0 ('Over the Horizon') 64bit
Библиотека кодирования : libebml v1.3.1 + libmatroska v1.4.2
Attachements : Cover.png

Видео
Идентификатор : 1
Формат : AVC
Формат/Информация : Advanced Video Codec
Профиль формата : High@L4.1
Параметр CABAC формата : Да
Параметр ReFrames формата : 10 кадров
Идентификатор кодека : V_MPEG4/ISO/AVC
Продолжительность : 2 ч. 9 м.
Битрейт : 7320 Кбит/сек
Ширина : 1280 пикселей
Высота : 532 пикселя
Соотношение сторон : 2,40:1
Режим частоты кадров : Постоянный
Частота кадров : 23,976 кадра/сек
Цветовое пространство : YUV
Субдискретизация насыщенности : 4:2:0
Битовая глубина : 8 бит
Тип развёртки : Прогрессивная
Бит/(Пиксели*Кадры) : 0.448
Размер потока : 6,46 Гбайт (83%)
Заголовок : Release by Rensler
Библиотека кодирования : x264 core 148 r2692 64f4e24
Настройки программы : cabac=1 / ref=10 / deblock=1:-3:-3 / analyse=0x3:0x113 / me=umh / subme=11 / psy=1 / psy_rd=1.00:0.00 / mixed_ref=1 / me_range=48 / chroma_me=1 / trellis=2 / 8x8dct=1 / cqm=0 / deadzone=21,11 / fast_pskip=0 / chroma_qp_offset=-2 / threads=3 / lookahead_threads=1 / sliced_threads=0 / nr=0 / decimate=0 / interlaced=0 / bluray_compat=0 / constrained_intra=0 / bframes=11 / b_pyramid=2 / b_adapt=2 / b_bias=0 / direct=3 / weightb=1 / open_gop=0 / weightp=2 / keyint=230 / keyint_min=23 / scenecut=40 / intra_refresh=0 / rc_lookahead=60 / rc=2pass / mbtree=0 / bitrate=7320 / ratetol=1.0 / qcomp=0.80 / qpmin=0 / qpmax=69 / qpstep=4 / cplxblur=20.0 / qblur=0.5 / vbv_maxrate=50000 / vbv_bufsize=62500 / nal_hrd=none / filler=0 / ip_ratio=1.25 / pb_ratio=1.15 / aq=2:0.70
Язык : English

Аудио #1
Идентификатор : 2
Формат : AC-3
Формат/Информация : Audio Coding 3
Расширение режима : CM (complete main)
Параметр Endianness формата : Big
Идентификатор кодека : A_AC3
Продолжительность : 2 ч. 9 м.
Вид битрейта : Постоянный
Битрейт : 640 Кбит/сек
Каналы : 6 каналов
Расположение каналов : Front: L C R, Side: L R, LFE
Частота : 48,0 КГц
Метод сжатия : С потерями
Размер потока : 592 Мбайт (7%)
Заголовок : BD CEE
Язык : Russian
Default : Да
Forced : Нет

Аудио #2
Идентификатор : 3
Формат : AC-3
Формат/Информация : Audio Coding 3
Расширение режима : CM (complete main)
Параметр Endianness формата : Big
Идентификатор кодека : A_AC3
Продолжительность : 2 ч. 9 м.
Вид битрейта : Постоянный
Битрейт : 640 Кбит/сек
Каналы : 6 каналов
Расположение каналов : Front: L C R, Side: L R, LFE
Частота : 48,0 КГц
Метод сжатия : С потерями
Размер потока : 592 Мбайт (7%)
Заголовок : Original
Язык : English
Default : Нет
Forced : Нет

Текст #1
Идентификатор : 4
Формат : UTF-8
Идентификатор кодека : S_TEXT/UTF8
Идентификатор кодека/Информация : UTF-8 Plain Text
Заголовок : Full
Язык : Russian
Default : Нет
Forced : Нет

Текст #2
Идентификатор : 5
Формат : UTF-8
Идентификатор кодека : S_TEXT/UTF8
Идентификатор кодека/Информация : UTF-8 Plain Text
Заголовок : Full
Язык : English
Default : Нет
Forced : Нет

Текст #3
Идентификатор : 6
Формат : UTF-8
Идентификатор кодека : S_TEXT/UTF8
Идентификатор кодека/Информация : UTF-8 Plain Text
Заголовок : SDH
Язык : English
Default : Нет
Forced : Нет

Меню
00:00:00.000 : en:Chapter 01
00:03:55.402 : en:Chapter 02
00:07:33.119 : en:Chapter 03
00:10:19.953 : en:Chapter 04
00:14:44.383 : en:Chapter 05
00:17:58.744 : en:Chapter 06
00:23:33.245 : en:Chapter 07
00:30:06.304 : en:Chapter 08
00:35:35.633 : en:Chapter 09
00:39:34.205 : en:Chapter 10
00:42:58.910 : en:Chapter 11
00:46:43.300 : en:Chapter 12
00:49:02.606 : en:Chapter 13
00:51:53.610 : en:Chapter 14
00:58:00.644 : en:Chapter 15
01:00:19.115 : en:Chapter 16
01:02:29.746 : en:Chapter 17
01:08:00.910 : en:Chapter 18
01:10:29.225 : en:Chapter 19
01:14:33.803 : en:Chapter 20
01:18:23.365 : en:Chapter 21
01:23:08.984 : en:Chapter 22
01:25:55.817 : en:Chapter 23
01:29:13.348 : en:Chapter 24
01:31:51.673 : en:Chapter 25
01:36:51.472 : en:Chapter 26
01:41:55.276 : en:Chapter 27
01:44:53.120 : en:Chapter 28
01:48:06.647 : en:Chapter 29
01:51:30.851 : en:Chapter 30
01:55:05.899 : en:Chapter 31
01:57:31.211 : en:Chapter 32
02:00:12.372 : en:Chapter 33


http//img10.lostpic.net/2016/08/28/438e391062aa3a7e92bceafffaef6dcf.th.png http//img10.lostpic.net/2016/08/28/428a0ab4c7ea859854338d8d5f99717a.th.png http//img10.lostpic.net/2016/08/28/4fa862c0970606fabd28e345b8463ebd.th.png http//img10.lostpic.net/2016/08/28/391b70ee7139f622547379ed3b1b30.th.png
http//img10.lostpic.net/2016/08/28/1e645a04f9de169c1e60e046c31b70.th.png http//img10.lostpic.net/2016/08/28/f13df0924b80acaa015634edcfd2efe0.th.png http//img10.lostpic.net/2016/08/28/79b0e83ba873b835c5cae1f9b6928720.th.png http//img10.lostpic.net/2016/08/28/bd00731361b2f4e4c5b5e3bea0ed7543.th.png



написал:
*За предоставленное облако (http) "Спасибы" уходят - Kingsize87


Ссылки для скачивания:
http//bt.hqclub.net/files/ok.png Торрент: Матрица: Трилогия / The Matrix: Trilogy (1999-2003) BDRip 720p


Публикация материалов сайта на сторонних ресурсах возможна только в неизменном виде.


Обсудить релиз на форуме

Вас также может заинтересовать:


  • 5
 (Голосов: 7)


Распечатать новость на принтере Фантастика, Боевик, Приключения
Обновлено: 26.10.2016 - 04:52

КОММЕНТАРИИ

 №1. LeonidMikhalin

Статус: Зритель | Новостей: 0 | Комментариев: 182
Спасибо, однозначно в коллекцию.

2.10.2016 - 23:37   цитировать  

 №2. Rensler

Статус: Новичок | Новостей: 22 | Комментариев: 10
Rensler LeonidMikhalin Пожалуйста!

15.10.2016 - 22:35   цитировать