Вас Приветствует Релиз-группа HQCLUB


Помощь ресурсу, очень ВАЖНО!!!



.


WELCOME
Добро пожаловать в наше интернет - сообщество!

Всех нас объединяет одна страсть - страсть к высококачественному кино. А это наш сайт. Ежедневно здесь мы публикуем десятки качественных, свежих, а порой и эксклюзивных релизов, которые Вы можете скачать совершенно бесплатно и без каких-либо регистраций. Посему рекомендуем Вам добавить HQClub себе в закладки, а также подписаться на нашу ленту новостей, чтобы всегда быть в курсе всех событий. Ну а если Вы такой же синий фил, как и мы, то милости просим на наш форум. И в заключение, попробуйте зарегистрироваться, ведь не так это и сложно и займет всего лишь пару минут! Вот увидите, Вам у нас понравится и Вы вольетесь в наш дружный коллектив! Ну а пока - осматривайтесь = )
Мы рады Вам !





Мстители: Эра Альтрона / Avengers: Age of Ultron (2015) BDRip-AVC

Оформил: Elheym | 17 сентября 2015 - 20:20:08 | Комментариев: 2 | Обращений: 1309 {bookmarks_news}

http//lostpic.net/images/2015/09/17/d3522210a204560110162bbe2afbc3.jpg

Информация о фильме:
Название: Мстители: Эра Альтрона
Оригинальное название: Avengers: Age of Ultron
Год выхода: 2015
Жанр: фантастика, боевик, приключения
Режиссер: Джосс Уидон / Joss Whedon
В ролях: Роберт Дауни мл., Крис Хемсворт, Крис Эванс, Скарлетт Йоханссон, Марк Руффало, Джереми Реннер, Аарон Тейлор-Джонсон, Элизабет Олсен, Джеймс Спэйдер, Сэмюэл Л. Джексон

О фильме: Человечество на грани уничтожения. На этот раз людям угрожает Альтрон — искусственный интеллект, ранее созданный для того, чтобы защищать Землю от любых угроз. Однако, главной угрозой он посчитал человечество. Международная организация Щ. И. Т. распалась, и теперь мир не способен справиться с таким мощным врагом, потому люди вновь обращаются за помощью к Величайшим Героям Земли — Мстителям. Однако Альтрон слишком силен, и есть большая вероятность, что даже им не удастся остановить начало надвигающейся Эры Альтрона, где нет места для людей…

«A new age begins»



http//rating.kinopoisk.ru/679830.gif http//tracker.0day.kiev.ua/imdb/imdb_tt2395427.gif

Релиз от - http//hqclub.net/images/hqclub.png
Автор рипа: Elheym

Выпущено: США ‖ Marvel Studios Inc.
Продолжительность: 02:21:18
Перевод: Профессиональный (полное дублирование) BD EUR
Оригинальная аудиодорожка: английская
Субтитры: русские (полные: BD, iTunes, Анастасии Кисиленко aka Medveditsa; форсированные: BD, iTunes), украинские (полные, форсированные), английские (полные, SDH, SDH цветные)
Главы: присутствуют, сохранены оригинальные (подписаны)

Дополнительные аудиодорожки:
+ Профессиональный (полное дублирование) украинский (альтернативная ссылка)

Файл:
Формат: MKV
Качество: BDRip-AVC (источник: http//i28.fastpic.ru/big/2011/1013/a8/a3d28e80c9544f4c572189fc892ea8.gif / Blu-ray EUR [AVENGERS_AGE_OF_ULTRON_2015_HDCLUB] / 1080p)
Видео: 1146x480 (2.40:1), 23.976 fps, MPEG-4 AVC, ~3200 kbps avg, 0.243 bit/pixel
Аудио #1: 48 kHz, AC3 Dolby Digital, 3/2 (L,C,R,l,r) + LFE ch, ~448 kbps avg (DUB)
Аудио #2: 48 kHz, AC3 Dolby Digital, 3/2 (L,C,R,l,r) + LFE ch, ~448 kbps avg (ENG)
Аудио #3: 48 kHz, AC3 Dolby Digital, 3/2 (L,C,R,l,r) + LFE ch, ~448 kbps avg (UKR) (отдельно)
Сэмпл: скачать

http//lostpic.net/images/2015/09/17/4c44e9aea80c790932fcf7df4e6ee1.th.png http//lostpic.net/images/2015/09/17/91927f6b5a4758aeac365585cfa5cb61.th.png http//lostpic.net/images/2015/09/17/90954289f0f0858f116238b107cd0c67.th.png http//lostpic.net/images/2015/09/17/0425c0f77c091629a8c96b34f27b5f88.th.png http//lostpic.net/images/2015/09/17/9c71b8c8b76a2a7a377e88acf73940.th.png http//lostpic.net/images/2015/09/17/fd1b4640117826e0f930bd5f3e78cc6f.th.png

"MediaInfo"

Уникальный идентификатор : 197191083878779029232322931359328761382 (0x94599F0EE1CBE5D894B8694B855FF626)
Полное имя : Avengers.Age.of.Ultron.2015.DUAL.BDRip-AVC.x264.AC3.-HQCLUB.mkv
Формат : Matroska
Версия формата : Version 2
Размер файла : 4,04 Гбайт
Продолжительность : 2 ч. 21 м.
Общий поток : 4097 Кбит/сек
Название фильма : Мстители: Эра Альтрона / Avengers: Age of Ultron (2015) BDRip-AVC by Elheym [HQCLUB]
Дата кодирования : UTC 2015-09-17 16:16:11
Программа кодирования : mkvmerge v5.2.0 ('I can't explain') built on Dec 18 2011 18:12:03
Библиотека кодирования : libebml v1.2.3 + libmatroska v1.3.0
Attachements : Cover.jpg

Видео
Идентификатор : 1
Формат : AVC
Формат/Информация : Advanced Video Codec
Профиль формата : High@L4
Параметр CABAC формата : Да
Параметр ReFrames формата : 14 кадров
Идентификатор кодека : V_MPEG4/ISO/AVC
Продолжительность : 2 ч. 21 м.
Битрейт : 3200 Кбит/сек
Ширина : 1146 пикселей
Высота : 480 пикселей
Соотношение сторон : 2,40:1
Режим частоты кадров : Постоянный
Частота кадров : 23,976 кадра/сек
Цветовое пространство : YUV
Субдискретизация насыщенности : 4:2:0
Битовая глубина : 8 бит
Тип развёртки : Прогрессивная
Бит/(Пиксели*Кадры) : 0.243
Размер потока : 3,08 Гбайт (76%)
Заголовок : Мстители: Эра Альтрона / Avengers: Age of Ultron (2015) BDRip-AVC by Elheym [HQCLUB]
Библиотека кодирования : x264 core 148 r2597kMod e86f3a1
Настройки программы : cabac=1 / ref=14 / deblock=1:-2:-1 / analyse=0x3:0x113 / me=umh / subme=11 / psy=1 / fade_compensate=0.00 / psy_rd=1.00:0.05 / mixed_ref=1 / me_range=32 / chroma_me=1 / trellis=2 / 8x8dct=1 / cqm=0 / deadzone=21,11 / fast_pskip=0 / chroma_qp_offset=-3 / threads=6 / lookahead_threads=2 / sliced_threads=0 / nr=0 / decimate=0 / interlaced=0 / bluray_compat=0 / constrained_intra=0 / fgo=0 / bframes=11 / b_pyramid=2 / b_adapt=2 / b_bias=0 / direct=3 / weightb=1 / open_gop=0 / weightp=2 / keyint=240 / keyint_min=23 / scenecut=40 / intra_refresh=0 / rc_lookahead=80 / rc=2pass / mbtree=0 / bitrate=3200 / ratetol=1.0 / qcomp=0.80 / qpmin=0 / qpmax=69 / qpstep=4 / cplxblur=20.0 / qblur=0.5 / vbv_maxrate=20000 / vbv_bufsize=25000 / nal_hrd=none / filler=0 / ip_ratio=1.40 / pb_ratio=1.30 / aq=2:0.75
Язык : English
Default : Да
Forced : Нет

Аудио #1
Идентификатор : 2
Формат : AC-3
Формат/Информация : Audio Coding 3
Расширение режима : CM (complete main)
Параметр Endianness формата : Big
Идентификатор кодека : A_AC3
Продолжительность : 2 ч. 21 м.
Вид битрейта : Постоянный
Битрейт : 448 Кбит/сек
Каналы : 6 каналов
Расположение каналов : Front: L C R, Side: L R, LFE
Частота : 48,0 КГц
Метод сжатия : С потерями
Размер потока : 453 Мбайт (11%)
Заголовок : АС3 5.1 @ 448 kbps - Dub, BD EUR
Язык : Russian
Default : Нет
Forced : Нет

Аудио #2
Идентификатор : 3
Формат : AC-3
Формат/Информация : Audio Coding 3
Расширение режима : CM (complete main)
Параметр Endianness формата : Big
Идентификатор кодека : A_AC3
Продолжительность : 2 ч. 21 м.
Вид битрейта : Постоянный
Битрейт : 448 Кбит/сек
Каналы : 6 каналов
Расположение каналов : Front: L C R, Side: L R, LFE
Частота : 48,0 КГц
Метод сжатия : С потерями
Размер потока : 453 Мбайт (11%)
Заголовок : АС3 5.1 @ 448 kbps - Original
Язык : English
Default : Нет
Forced : Нет

Текст #1
Идентификатор : 4
Формат : UTF-8
Идентификатор кодека : S_TEXT/UTF8
Идентификатор кодека/Информация : UTF-8 Plain Text
Заголовок : Full, BD
Язык : Russian
Default : Нет
Forced : Нет

Текст #2
Идентификатор : 5
Формат : UTF-8
Идентификатор кодека : S_TEXT/UTF8
Идентификатор кодека/Информация : UTF-8 Plain Text
Заголовок : Full, iTunes
Язык : Russian
Default : Нет
Forced : Нет

Текст #3
Идентификатор : 6
Формат : UTF-8
Идентификатор кодека : S_TEXT/UTF8
Идентификатор кодека/Информация : UTF-8 Plain Text
Заголовок : Forced, BD
Язык : Russian
Default : Нет
Forced : Нет

Текст #4
Идентификатор : 7
Формат : UTF-8
Идентификатор кодека : S_TEXT/UTF8
Идентификатор кодека/Информация : UTF-8 Plain Text
Заголовок : Forced, iTunes
Язык : Russian
Default : Нет
Forced : Нет

Текст #5
Идентификатор : 8
Формат : UTF-8
Идентификатор кодека : S_TEXT/UTF8
Идентификатор кодека/Информация : UTF-8 Plain Text
Заголовок : Full
Язык : Ukrainian
Default : Нет
Forced : Нет

Текст #6
Идентификатор : 9
Формат : UTF-8
Идентификатор кодека : S_TEXT/UTF8
Идентификатор кодека/Информация : UTF-8 Plain Text
Заголовок : Forced
Язык : Ukrainian
Default : Нет
Forced : Нет

Текст #7
Идентификатор : 10
Формат : UTF-8
Идентификатор кодека : S_TEXT/UTF8
Идентификатор кодека/Информация : UTF-8 Plain Text
Заголовок : Full
Язык : English
Default : Нет
Forced : Нет

Текст #8
Идентификатор : 11
Формат : UTF-8
Идентификатор кодека : S_TEXT/UTF8
Идентификатор кодека/Информация : UTF-8 Plain Text
Заголовок : SDH
Язык : English
Default : Нет
Forced : Нет

Текст #9
Идентификатор : 12
Формат : UTF-8
Идентификатор кодека : S_TEXT/UTF8
Идентификатор кодека/Информация : UTF-8 Plain Text
Заголовок : SDH Colored
Язык : English
Default : Нет
Forced : Нет

Меню
00:00:00.000 : en:Battle for Loki's Scepter
00:12:15.192 : en:Birth of Ultron
00:21:23.949 : en:Avengers House Party
00:33:01.771 : en:Attack Aftermath
00:36:07.623 : en:Ultron Meers the Twins
00:42:00.768 : en:Mind Games
00:52:44.744 : en:Hulk vs. Hulkbuster
00:59:01.871 : en:The Safe House
01:15:51.088 : en:Cradle Robbing
01:27:08.598 : en:Birthof the Vision
01:36:44.757 : en:The Battle of Sokovia
01:54:35.326 : en:"Is That the Best You Can Do?"
02:06:27.580 : en:The New Avengers
02:11:08.026 : en:End Credits

"x264 log"

x264 [info]: frame I:1959 Avg QP:13.35 size: 86268
x264 [info]: frame P:52801 Avg QP:16.90 size: 31788
x264 [info]: frame B:148527 Avg QP:18.81 size: 10379

x264 [info]: consecutive B-frames: 5.2% 4.8% 15.7% 18.5% 16.8% 28.9% 4.9% 1.5% 1.4% 0.9% 0.7% 0.7%

x264 [info]: ref P L0: 49.9% 9.5% 17.2% 5.8% 4.8% 3.3% 2.7% 1.7% 1.2% 0.9% 0.9% 0.7% 0.7% 0.6% 0.2% 0.0%
x264 [info]: ref B L0: 75.3% 11.3% 4.4% 2.3% 1.5% 1.2% 0.9% 0.7% 1.0% 0.9% 0.2% 0.2% 0.1%
x264 [info]: ref B L1: 93.1% 6.9%


Ссылки для скачивания:

http//bt.hqclub.net/files/ok.png Торрент: Мстители: Эра Альтрона / Avengers: Age of Ultron (2015) BDRip-AVC

Лучшая онлайн игра!


Публикация материалов сайта на сторонних ресурсах возможна только в неизменном виде.


Обсудить релиз на форуме

Вас также может заинтересовать:


  • 5
 (Голосов: 9)


Распечатать новость на принтере Фантастика, Боевик, Приключения
Обновлено: 21.09.2015 - 00:37

КОММЕНТАРИИ

 №1. кит

Статус: Кинокритик | Новостей: 0 | Комментариев: 336
кит Elheym ay az
~~~

17.09.2015 - 21:17   цитировать  

 №2. ru4lan

Статус: Кинокритик | Новостей: 0 | Комментариев: 2736
ru4lan супер!
~~~

28.09.2015 - 13:16   цитировать