Вас Приветствует Релиз-группа HQCLUB


Помощь ресурсу, очень ВАЖНО!!!



.


WELCOME
Добро пожаловать в наше интернет - сообщество!

Всех нас объединяет одна страсть - страсть к высококачественному кино. А это наш сайт. Ежедневно здесь мы публикуем десятки качественных, свежих, а порой и эксклюзивных релизов, которые Вы можете скачать совершенно бесплатно и без каких-либо регистраций. Посему рекомендуем Вам добавить HQClub себе в закладки, а также подписаться на нашу ленту новостей, чтобы всегда быть в курсе всех событий. Ну а если Вы такой же синий фил, как и мы, то милости просим на наш форум. И в заключение, попробуйте зарегистрироваться, ведь не так это и сложно и займет всего лишь пару минут! Вот увидите, Вам у нас понравится и Вы вольетесь в наш дружный коллектив! Ну а пока - осматривайтесь = )
Мы рады Вам !





Новый Человек-паук / The Amazing Spider-Man (2012) BDRip-AVC

Оформил: Sky™ | 26 октября 2012 - 21:23:03 | Комментариев: 3 | Обращений: 2187 {bookmarks_news}

http//lostpic.net/images/da27f3d207a62cb85ef5645a9020a2.png

Информация о фильме:
Название: Новый Человек-паук
Оригинальное название: The Amazing Spider-Man
Год выхода: 2012
Жанр: фантастика, боевик, приключения
Режиссер: Марк Уэбб
В ролях: Эндрю Гарфилд, Эмма Стоун Рис Иванс, Дэнис Лири, Мартин Шин, Салли Филд, Эмбет Дэвидц, Кэмпбелл Скотт, Ирфан Кхан, Крис Зилка

О фильме: В детстве Питер Паркер был оставлен своими родителями, и поэтому воспитывался дядей и тётей. Шли годы, Питер был обычным примерным школьником, подвергался нападкам хулиганов и был влюблён в свою одноклассницу Гвен Стэйси, которая сама втайне отвечала ему взаимностью. Но после укуса генетически изменённого паука, Питер получает невероятные сверхспособности и его жизнь меняется навсегда.

«Новый герой, новая история, новая любовь»



http//www.kinopoisk.ru/rating/278217.gif

Релиз от - http//hqclub.net/images/hqclub.png
Автор рипа: Sky™

Выпущено: Columbia Pictures, Laura Ziskin Productions, Marvel Enterprises / США
Продолжительность: 02:16:17
Перевод: Профессиональный (полное дублирование) BD EUR + Оригинальная звуковая дорожка (Английский)
Субтитры: Русские, Английские (*.srt, отключаемые)
Сохранены оригинальные чаптеры как на Blu-ray.

отдельно на narod.ru
Украинский (полное дублирование) [b]BD EUR[/b]

Файл:
Формат: mkv
Качество: BDRip-AC (источник:http//lostpic.net/images/953a96a00e963ac6907f450837a55c1e.png / BluRay Disc EUR / 1080p)
Видео: 1024x436 (2,40:1), 23.976 fps, X264@L4.1 ~2734 kbps avg, 0.261 bit/pixel
Аудио #1: 48 kHz, AC3 Dolby Digital, 3/2 (L,C,R,l,r) + LFE ch, ~448 kbps avg (RUS) BD EUR
Аудио #2: 48 kHz, AC3 Dolby Digital, 3/2 (L,C,R,l,r) + LFE ch, ~448 kbps avg (ENG)
Аудио #1: 48 kHz, AC3 Dolby Digital, 3/2 (L,C,R,l,r) + LFE ch, ~448 kbps avg (UKR) BD EUR отдельно на narod.ru
Размер: 3540.10 Mb
http//lostpic.net/images/1b899dddff9c84e7020a856612f5c646.png

http//lostpic.net/thumbs/3ca30760f072c2a11978ec27c1d241.png http//lostpic.net/thumbs/fe4f6af5b677918bbf39c619a9b8bf9a.png http//lostpic.net/thumbs/ee99a401ba346f91faaa363e6c94.png http//lostpic.net/thumbs/b394cc64798d9d72e7d910f4f519ac.png http//lostpic.net/thumbs/c4189a5fec97a2415282ba3be310ccc8.png http//lostpic.net/thumbs/0d19869632de42fad021b14c118ea9.png
MediaINFO
[HTML]Полное имя : E:\FILMA\Novyj.chelovek.pauk.2012\rip\Novyj.Chelovek.pauk.2012.BDRip-AVC.H264.AC3.-HQCLUB.mkv
Формат : Matroska
Версия формата : Version 2
Размер файла : 3,46 Гбайт
Продолжительность : 2 ч. 16 м.
Общий поток : 3632 Кбит/сек
Дата кодирования : UTC 2012-10-26 13:05:25
Программа кодирования : mkvmerge v5.7.0 ('The Whirlwind') built on Jul 8 2012 20:08:51
Библиотека кодирования : libebml v1.2.3 + libmatroska v1.3.0

Видео
Идентификатор : 1
Формат : AVC
Формат/Информация : Advanced Video Codec
Профиль формата : High@L4.1
Параметр CABAC формата : Да
Параметр ReFrames формата : 9 кадров
Идентификатор кодека : V_MPEG4/ISO/AVC
Продолжительность : 2 ч. 16 м.
Битрейт : 2734 Кбит/сек
Ширина : 1024 пикселя
Высота : 426 пикселей
Соотношение сторон : 2,40:1
Режим частоты кадров : Постоянный
Частота кадров : 23,976 кадра/сек
Цветовое пространство : YUV
Субдискретизация насыщенности : 4:2:0
Битовая глубина : 8 бит
Тип развёртки : Прогрессивная
Бит/(Пиксели*Кадры) : 0.261
Размер потока : 2,54 Гбайт (73%)
Заголовок : Новый Человек-паук / The Amazing Spider-Man (2012) BDRip-AVC | HQCLUB
Библиотека кодирования : x264 core 120 r2146 bcd41db
Настройки программы : cabac=1 / ref=9 / deblock=1:-3:-2 / analyse=0x3:0x133 / me=umh / subme=9 / psy=1 / psy_rd=1.00:0.00 / mixed_ref=1 / me_range=64 / chroma_me=1 / trellis=1 / 8x8dct=1 / cqm=0 / deadzone=21,11 / fast_pskip=1 / chroma_qp_offset=-4 / threads=12 / sliced_threads=0 / nr=0 / decimate=1 / interlaced=0 / bluray_compat=0 / constrained_intra=0 / bframes=10 / b_pyramid=2 / b_adapt=2 / b_bias=0 / direct=1 / weightb=1 / open_gop=0 / weightp=2 / keyint=240 / keyint_min=24 / scenecut=40 / intra_refresh=0 / rc_lookahead=40 / rc=2pass / mbtree=0 / bitrate=2734 / ratetol=1.0 / qcomp=0.60 / qpmin=0 / qpmax=69 / qpstep=4 / cplxblur=20.0 / qblur=0.5 / vbv_maxrate=62500 / vbv_bufsize=50000 / nal_hrd=none / ip_ratio=1.40 / pb_ratio=1.30 / aq=1:0.70
Язык : English
Default : Да
Forced : Нет

Аудио #1
Идентификатор : 2
Формат : AC-3
Формат/Информация : Audio Coding 3
Расширение режима : CM (complete main)
Параметр Endianness формата : Big
Идентификатор кодека : A_AC3
Продолжительность : 2 ч. 16 м.
Вид битрейта : Постоянный
Битрейт : 448 Кбит/сек
Каналы : 6 каналов
Расположение каналов : Front: L C R, Side: L R, LFE
Частота : 48,0 КГц
Битовая глубина : 16 бит
Метод сжатия : С потерями
Размер потока : 437 Мбайт (12%)
Заголовок : Дубляж (BD EUR) AC3 5.1 @ 448 kbps
Язык : Russian
Default : Да
Forced : Да

Аудио #2
Идентификатор : 3
Формат : AC-3
Формат/Информация : Audio Coding 3
Расширение режима : CM (complete main)
Параметр Endianness формата : Big
Идентификатор кодека : A_AC3
Продолжительность : 2 ч. 16 м.
Вид битрейта : Постоянный
Битрейт : 448 Кбит/сек
Каналы : 6 каналов
Расположение каналов : Front: L C R, Side: L R, LFE
Частота : 48,0 КГц
Битовая глубина : 16 бит
Метод сжатия : С потерями
Размер потока : 437 Мбайт (12%)
Заголовок : Оригинал AC3 5.1 @ 448 kbps
Язык : English
Default : Нет
Forced : Да

Текст #1
Идентификатор : 4
Формат : UTF-8
Идентификатор кодека : S_TEXT/UTF8
Идентификатор кодека/Информация : UTF-8 Plain Text
Заголовок : Full (R5)
Язык : Russian
Default : Да
Forced : Нет

Текст #2
Идентификатор : 5
Формат : UTF-8
Идентификатор кодека : S_TEXT/UTF8
Идентификатор кодека/Информация : UTF-8 Plain Text
Заголовок : Full
Язык : English
Default : Нет
Forced : Нет

Меню
00:00:00.000 : en:00:00:00.000
00:07:45.924 : en:00:07:45.924
00:14:39.670 : en:00:14:39.670
00:22:57.543 : en:00:22:57.543
00:32:58.226 : en:00:32:58.226
00:41:25.066 : en:00:41:25.066
00:48:42.503 : en:00:48:42.503
00:55:10.933 : en:00:55:10.933
01:03:17.293 : en:01:03:17.293
01:12:29.011 : en:01:12:29.011
01:17:51.750 : en:01:17:51.750
01:24:38.949 : en:01:24:38.949
01:34:04.556 : en:01:34:04.556
01:42:59.548 : en:01:42:59.548
01:52:16.355 : en:01:52:16.355
02:00:52.912 : en:02:00:52.912[/HTML]

x264 log
[HTML]---[NoImage] x264 [info]: frame I:2034 Avg QP:12.52 size: 64082 PSNR Mean Y:50.20 U:53.51 V:54.88 Avg:51.15 Global:50.89
---[NoImage] x264 [info]: frame P:44534 Avg QP:13.79 size: 24450 PSNR Mean Y:48.74 U:52.05 V:53.63 Avg:49.69 Global:49.30
---[NoImage] x264 [info]: frame B:149486 Avg QP:14.34 size: 10535 PSNR Mean Y:48.39 U:51.71 V:53.60 Avg:49.36 Global:49.00
---[NoImage] x264 [info]: consecutive B-frames: 3.0% 3.4% 7.6% 27.0% 17.0% 25.7% 7.8% 5.4% 1.2% 0.6% 1.2%[/HTML]

Ссылки для скачивания:

http//bt.hqclub.net/files/ok.png Торрент: Новый Человек-паук / The Amazing Spider-Man (2012)BDRip-AVC

Лучшая онлайн игра!


Публикация материалов сайта на сторонних ресурсах возможна только в неизменном виде.


Обсудить релиз на форуме

Вас также может заинтересовать:


  • 4
 (Голосов: 10)


Распечатать новость на принтере Фантастика, Боевик, Приключения
Обновлено: 28.10.2012 - 11:55

КОММЕНТАРИИ

 №1. gubiniliya

Статус: Любитель | Новостей: 0 | Комментариев: 107
Спасибо, но подожду BDRip на 2.18
~~~

27.10.2012 - 01:22   цитировать  

 №2. SerB_777

Статус: Кинокритик | Новостей: 0 | Комментариев: 583
SerB_777 Sky™, БОЛЬШОЕ СПАСИБО за ТРУД!!!
~~~

28.10.2012 - 00:06   цитировать  

 №3. sparex2000

Статус: Новичок | Новостей: 0 | Комментариев: 39
sparex2000 спасибо!
~~~

30.06.2014 - 18:21   цитировать