Вас Приветствует Релиз-группа HQCLUB


Помощь ресурсу, очень ВАЖНО!!!



.


WELCOME
Добро пожаловать в наше интернет - сообщество!

Всех нас объединяет одна страсть - страсть к высококачественному кино. А это наш сайт. Ежедневно здесь мы публикуем десятки качественных, свежих, а порой и эксклюзивных релизов, которые Вы можете скачать совершенно бесплатно и без каких-либо регистраций. Посему рекомендуем Вам добавить HQClub себе в закладки, а также подписаться на нашу ленту новостей, чтобы всегда быть в курсе всех событий. Ну а если Вы такой же синий фил, как и мы, то милости просим на наш форум. И в заключение, попробуйте зарегистрироваться, ведь не так это и сложно и займет всего лишь пару минут! Вот увидите, Вам у нас понравится и Вы вольетесь в наш дружный коллектив! Ну а пока - осматривайтесь = )
Мы рады Вам !





Стартрек: Возмездие / Star Trek Into Darkness [IMAX Edition] (2013) BDRip-AVC

Оформил: Elheym | 18 сентября 2014 - 01:25:09 | Комментариев: 4 | Обращений: 1352 {bookmarks_news}

http//lostpic.net/orig_images/7/f/a/7faf6a66fcdaf7ed6136e9acd91fb233.jpg

Информация о фильме:
Название: Стартрек: Возмездие
Оригинальное название: Star Trek Into Darkness
Год выхода: 2013
Жанр: фантастика, боевик, приключения
Режиссер: Джей Джей Абрамс
В ролях: Крис Пайн, Закари Куинто, Бенедикт Камбербэтч, Саймон Пегг, Карл Урбан, Зои Салдана, Элис Ив, Джон Чо, Антон Ельчин, Питер Уэллер, Брюс Гринвуд, Крис Хемсворт

О фильме: Вернувшись на Землю, команда корабля «Энтерпрайз» обнаруживает, что деятельность и принципы их организации подорваны изнутри. Флот скован необъяснимым ужасом и бездействует, пока мир все глубже погружается в бездну.

Капитан Кирк берет на себя руководство операцией по поимке злодея, ответственного за этот хаос и способного уничтожить все человечество.

В запутанной игре не на жизнь, а на смерть, любовь и дружба будут принесены в жертву ради единственного, что осталось у Кирка — его команды.

«Beyond the darkness, lies greatness»



http//rating.kinopoisk.ru/455165.gif http//tracker.0day.kiev.ua/imdb/imdb_tt1408101.gif

Релиз от - http//hqclub.net/images/hqclub.png
Автор рипа: Elheym

Выпущено: США, Bad Robot, Paramount Pictures, Skydance Productions
Продолжительность: 02:12:05
Перевод: Профессиональный (полное дублирование), BD EUR
Оригинальная аудио дорожка: английский
Субтитры: русские (полные, форсированные), украинские (полные, форсированные), английские (полные, SDH, SDH Colored)
Главы: присутствуют, сохранены оригинальные

Дополнительные аудиодорожки:
+ Авторский (одноголосый, закадровый) Ю. Немахов
+ Профессиональный (полное дублирование) украинский

Файл:
Формат: MKV
Качество: BDRip-AVC (источник: http//i28.fastpic.ru/big/2011/1013/a8/a3d28e80c9544f4c572189fc892ea8.gif / Blu-ray EUR / 1080p)
Видео: 1068x602 (1.774:1), 23.976 fps, MPEG-4 AVC, ~4328 kbps avg, 0.281 bit/pixel
Аудио #1: 48 kHz, AC3 Dolby Digital, 3/2 (L,C,R,l,r) + LFE ch, ~448 kbps (DUB)
Аудио #2: 48 kHz, AC3 Dolby Digital, 3/2 (L,C,R,l,r) + LFE ch, ~448 kbps (ENG)
Аудио #3: 48 kHz, AC3 Dolby Digital, 3/2 (L,C,R,l,r) + LFE ch, ~448 kbps (AVO.NEMAHOV) (отдельно)
Аудио #4: 48 kHz, AC3 Dolby Digital, 3/2 (L,C,R,l,r) + LFE ch, ~448 kbps (UKR) (отдельно)
Размер: 4.91 GB
Сэмпл: скачать

http//lostpic.net/thumbs_images/d/4/0/d401f2429fa3f1fdfb0ae4f30d96a047.png http//lostpic.net/thumbs_images/4/5/8/45837d51d04d24b1fbbefb1f9a63aaaf.png http//lostpic.net/thumbs_images/0/3/3/0337099e9ebb26d21801411dc7072a62.png http//lostpic.net/thumbs_images/d/9/a/d9ae23cc2774e470d71183f4afbc92f7.png http//lostpic.net/thumbs_images/b/9/5/b95ed2a0a2587c843a6cd5085c4ff46a.png http//lostpic.net/thumbs_images/d/c/9/dc9be4b9601dda20c2eda4af393a41.png

"MediaInfo"

Уникальный идентификатор : 215349302430337378923212591043518915761 (0xA202C45A7669AF3995701EDCDE2BE4B1)
Полное имя : Star.Trek.Into.Darkness.IMAX.Edition.2013.DUAL.BDRip-AVC.x264.AC3.-HQCLUB.mkv
Формат : Matroska
Версия формата : Version 2
Размер файла : 4,92 Гбайт
Продолжительность : 2 ч. 12 м.
Общий поток : 5330 Кбит/сек
Дата кодирования : UTC 2014-09-19 04:12:53
Программа кодирования : mkvmerge v5.2.0 ('I can't explain') built on Dec 18 2011 18:12:03
Библиотека кодирования : libebml v1.2.3 + libmatroska v1.3.0
Attachment : Yes / Yes

Видео
Идентификатор : 1
Формат : AVC
Формат/Информация : Advanced Video Codec
Профиль формата : High@L4.1
Параметр CABAC формата : Да
Параметр ReFrames формата : 11 кадров
Идентификатор кодека : V_MPEG4/ISO/AVC
Продолжительность : 2 ч. 12 м.
Битрейт : 4328 Кбит/сек
Ширина : 1068 пикселей
Высота : 602 пикселя
Соотношение сторон : 16:9
Режим частоты кадров : Постоянный
Частота кадров : 23,976 кадра/сек
Цветовое пространство : YUV
Субдискретизация насыщенности : 4:2:0
Битовая глубина : 8 бит
Тип развёртки : Прогрессивная
Бит/(Пиксели*Кадры) : 0.281
Размер потока : 3,99 Гбайт (81%)
Заголовок : Стартрек: Возмездие / Star Trek Into Darkness [IMAX Edition] (2013) BDRip-AVC by HQCLUB [Elheym]
Библиотека кодирования : x264 core 142 r2479 dd79a61
Настройки программы : cabac=1 / ref=11 / deblock=1:-3:-2 / analyse=0x3:0x113 / me=umh / subme=11 / psy=1 / psy_rd=1.06:0.00 / mixed_ref=1 / me_range=32 / chroma_me=1 / trellis=2 / 8x8dct=1 / cqm=0 / deadzone=21,11 / fast_pskip=0 / chroma_qp_offset=-4 / threads=6 / lookahead_threads=1 / sliced_threads=0 / nr=0 / decimate=1 / interlaced=0 / bluray_compat=0 / constrained_intra=0 / bframes=11 / b_pyramid=2 / b_adapt=2 / b_bias=0 / direct=1 / weightb=1 / open_gop=0 / weightp=2 / keyint=230 / keyint_min=23 / scenecut=40 / intra_refresh=0 / rc_lookahead=40 / rc=crf / mbtree=1 / crf=16.1 / qcomp=0.60 / qpmin=0 / qpmax=69 / qpstep=4 / vbv_maxrate=50000 / vbv_bufsize=62500 / crf_max=0.0 / nal_hrd=none / filler=0 / ip_ratio=1.40 / aq=2:0.90
Язык : English
Default : Да
Forced : Нет

Аудио #1
Идентификатор : 2
Формат : AC-3
Формат/Информация : Audio Coding 3
Расширение режима : CM (complete main)
Параметр Endianness формата : Big
Идентификатор кодека : A_AC3
Продолжительность : 2 ч. 12 м.
Вид битрейта : Постоянный
Битрейт : 448 Кбит/сек
Каналы : 6 каналов
Расположение каналов : Front: L C R, Side: L R, LFE
Частота : 48,0 КГц
Битовая глубина : 16 бит
Метод сжатия : С потерями
Размер потока : 423 Мбайт (8%)
Заголовок : АС3 5.1 @ 448 kbps - Dub, BD EUR
Язык : Russian
Default : Нет
Forced : Нет

Аудио #2
Идентификатор : 3
Формат : AC-3
Формат/Информация : Audio Coding 3
Расширение режима : CM (complete main)
Параметр Endianness формата : Big
Идентификатор кодека : A_AC3
Продолжительность : 2 ч. 12 м.
Вид битрейта : Постоянный
Битрейт : 448 Кбит/сек
Каналы : 6 каналов
Расположение каналов : Front: L C R, Side: L R, LFE
Частота : 48,0 КГц
Битовая глубина : 16 бит
Метод сжатия : С потерями
Размер потока : 423 Мбайт (8%)
Заголовок : АС3 5.1 @ 448 kbps - Original
Язык : English
Default : Нет
Forced : Нет

Текст #1
Идентификатор : 4
Формат : UTF-8
Идентификатор кодека : S_TEXT/UTF8
Идентификатор кодека/Информация : UTF-8 Plain Text
Заголовок : Full
Язык : English
Default : Нет
Forced : Нет

Текст #2
Идентификатор : 5
Формат : UTF-8
Идентификатор кодека : S_TEXT/UTF8
Идентификатор кодека/Информация : UTF-8 Plain Text
Заголовок : Forced
Язык : English
Default : Нет
Forced : Нет

Текст #3
Идентификатор : 6
Формат : UTF-8
Идентификатор кодека : S_TEXT/UTF8
Идентификатор кодека/Информация : UTF-8 Plain Text
Заголовок : Full
Язык : Ukrainian
Default : Нет
Forced : Нет

Текст #4
Идентификатор : 7
Формат : UTF-8
Идентификатор кодека : S_TEXT/UTF8
Идентификатор кодека/Информация : UTF-8 Plain Text
Заголовок : Forced
Язык : Ukrainian
Default : Нет
Forced : Нет

Текст #5
Идентификатор : 8
Формат : UTF-8
Идентификатор кодека : S_TEXT/UTF8
Идентификатор кодека/Информация : UTF-8 Plain Text
Заголовок : Full
Язык : English
Default : Нет
Forced : Нет

Текст #6
Идентификатор : 9
Формат : UTF-8
Идентификатор кодека : S_TEXT/UTF8
Идентификатор кодека/Информация : UTF-8 Plain Text
Заголовок : Full SDH
Язык : English
Default : Нет
Forced : Нет

Текст #7
Идентификатор : 10
Формат : UTF-8
Идентификатор кодека : S_TEXT/UTF8
Идентификатор кодека/Информация : UTF-8 Plain Text
Заголовок : Full SDH Colored
Язык : English
Default : Нет
Forced : Нет

Меню
00:00:00.000 : :Chapter 01
00:10:20.369 : :Chapter 02
00:19:21.492 : :Chapter 03
00:30:03.968 : :Chapter 04
00:40:09.113 : :Chapter 05
00:46:05.261 : :Chapter 06
00:56:38.225 : :Chapter 07
01:06:35.782 : :Chapter 08
01:12:55.662 : :Chapter 09
01:22:45.751 : :Chapter 10
01:30:54.738 : :Chapter 11
01:38:36.368 : :Chapter 12
01:47:09.546 : :Chapter 13
01:54:17.140 : :Chapter 14
01:59:20.652 : :Chapter 15
02:03:18.305 : :Chapter 16
02:12:05.707 : :Chapter 17

"x264 log"

x264 [info]: frame I:1492 Avg QP:13.37 size:118496
x264 [info]: frame P:45359 Avg QP:18.11 size: 43742
x264 [info]: frame B:143182 Avg QP:20.58 size: 15581

x264 [info]: consecutive B-frames: 3.8% 4.0% 9.0% 23.3% 17.0% 29.4% 6.7% 2.3% 2.2% 1.2% 0.8% 0.3%

x264 [info]: ref P L0: 44.3% 10.6% 18.0% 6.8% 5.8% 3.8% 3.4% 1.9% 1.8% 1.5% 1.6% 0.5% 0.0%
x264 [info]: ref B L0: 74.4% 11.5% 5.0% 2.8% 2.1% 1.6% 1.1% 0.8% 0.4% 0.2%
x264 [info]: ref B L1: 93.1% 6.9%


Ссылки для скачивания:

http//bt.hqclub.net/files/ok.png Торрент: Стартрек: Возмездие / Star Trek Into Darkness [IMAX Edition] (2013) BDRip-AVC

Лучшая онлайн игра!


Публикация материалов сайта на сторонних ресурсах возможна только в неизменном виде.


Обсудить релиз на форуме

Вас также может заинтересовать:


  • 5
 (Голосов: 5)


Распечатать новость на принтере Фантастика, Боевик, Приключения
Обновлено: 19.09.2014 - 10:38

КОММЕНТАРИИ

 №1. ru4lan

Статус: Кинокритик | Новостей: 0 | Комментариев: 2736
ru4lan великоват для меня
~~~

18.09.2014 - 19:52   цитировать  

 №2. serkon

Статус: Новичок | Новостей: 0 | Комментариев: 26
serkon 1. спс за труды )
2. согласен со многими - [B]ru4lan[B] везде...
3. но даже не смотря на пункт 2... прошу сделать рип для железного плеера ))
заранее благодарен )
~~~

19.09.2014 - 00:09   цитировать  

 №3. Elheym

Статус: Стажер | Новостей: 320 | Комментариев: 70
Видео ряд заменен на заявленый. Добавлен авторский перевод от Юрия Немахова.
~~~

19.09.2014 - 09:17   цитировать  

 №4. Alex_007

Статус: Новичок | Новостей: 0 | Комментариев: 9
Почему русские субтитры подписаны как английские?
~~~

20.09.2014 - 18:04   цитировать