Вас Приветствует Релиз-группа HQCLUB


Помощь ресурсу, очень ВАЖНО!!!



.


WELCOME
Добро пожаловать в наше интернет - сообщество!

Всех нас объединяет одна страсть - страсть к высококачественному кино. А это наш сайт. Ежедневно здесь мы публикуем десятки качественных, свежих, а порой и эксклюзивных релизов, которые Вы можете скачать совершенно бесплатно и без каких-либо регистраций. Посему рекомендуем Вам добавить HQClub себе в закладки, а также подписаться на нашу ленту новостей, чтобы всегда быть в курсе всех событий. Ну а если Вы такой же синий фил, как и мы, то милости просим на наш форум. И в заключение, попробуйте зарегистрироваться, ведь не так это и сложно и займет всего лишь пару минут! Вот увидите, Вам у нас понравится и Вы вольетесь в наш дружный коллектив! Ну а пока - осматривайтесь = )
Мы рады Вам !





Стражи Галактики / Guardians of the Galaxy (2014) BDRip-AVC

Оформил: Elheym | 21 ноября 2014 - 16:24:22 | Комментариев: 2 | Обращений: 1568 {bookmarks_news}

http//lostpic.net/orig_images/1/b/f/1bfd1315c2512c56ed1c39baf21ed3.jpg

Информация о фильме:
Название: Стражи Галактики
Оригинальное название: Guardians of the Galaxy
Год выхода: 2014
Жанр: фантастика, боевик, приключения
Режиссер: Джеймс Ганн
В ролях: Крис Прэтт, Зои Салдана, Дэйв Батиста, Брэдли Купер, Вин Дизель, Ли Пейс, Майкл Рукер, Карен Гиллан, Гленн Клоуз, Джимон Хонсу

О фильме: Отважному путешественнику Питеру Квиллу попадает в руки таинственный артефакт, принадлежащий могущественному и безжалостному злодею Ронану, строящему коварные планы по захвату Вселенной. Питер оказывается в центре межгалактической охоты, где жертва — он сам.

Единственный способ спасти свою жизнь — объединиться с четверкой нелюдимых изгоев: воинственным енотом по кличке Ракета, человекоподобным деревом Грутом, смертельно опасной Гаморой и одержимым жаждой мести Драксом, также известным как Разрушитель. Когда Квилл понимает, какой силой обладает украденный артефакт и какую опасность он представляет для вселенной, одиночка пойдет на все, чтобы сплотить случайных союзников для решающей битвы за судьбу галактики.

«Мстители спасают лишь Землю бренную, а эти ребята спасают Вселенную»



http//rating.kinopoisk.ru/689066.gif http//tracker.0day.kiev.ua/imdb/imdb_tt2015381.gif

Релиз от - http//hqclub.net/images/hqclub.png
Автор рипа: Elheym

Выпущено: США, Великобритания, Marvel Enterprises, Marvel Studios Inc., Moving Picture Company, The
Продолжительность: 02:00:51
Перевод : Профессиональный (полное дублирование), BD EUR
Оригинальная аудио дорожка: английский
Субтитры: русские (полные: BD, iTunes; форсированные), английские (полные, полные SDH)
Главы: присутствуют, сохранены оригинальные

Файл:
Формат: MKV
Качество: BDRip-AVC (источник: http//i28.fastpic.ru/big/2011/1013/a8/a3d28e80c9544f4c572189fc892ea8.gif / Blu-ray EUR / 1080p)
Видео: 1152x480 (2.40:1), 23.976 fps, MPEG-4 AVC, ~2333 kbps avg, 0.176 bit/pixel
Аудио #1: 48 kHz, AC3 Dolby Digital, 3/2 (L,C,R,l,r) + LFE ch, ~448 kbps avg (DUB)
Аудио #2: 48 kHz, AC3 Dolby Digital, 3/2 (L,C,R,l,r) + LFE ch, ~448 kbps avg (ENG)
Размер: 2.72 GB
Сэмпл: скачать

http//lostpic.net/thumbs_images/4/d/4/4d44ad514f556ebd7978885d5ad3f673.png http//lostpic.net/thumbs_images/3/b/8/3b8e8efde5353f2a8a3028e72bb21365.png http//lostpic.net/thumbs_images/e/f/4/ef47e34c881b746fe9012f95bd8e37.png http//lostpic.net/thumbs_images/d/7/e/d7eba383bae2e52de2f0295dedb7cee9.png http//lostpic.net/thumbs_images/6/c/5/6c50fe4a82d78f462474dd2bbd27c112.png http//lostpic.net/thumbs_images/d/7/3/d73c7da4524a96e0bbed7aaa17b298.png

"MediaInfo"

Уникальный идентификатор : 190390687882011204964947826177629056769 (0x8F3BE9A6364A54ED96C5A7DDB9756F01)
Полное имя : Guardians.of.the.Galaxy.2014.DUAL.BDRip-AVC.x264.AC3.-HQCLUB.mkv
Формат : Matroska
Версия формата : Version 2
Размер файла : 2,73 Гбайт
Продолжительность : 2 ч. 0 м.
Общий поток : 3232 Кбит/сек
Дата кодирования : UTC 2014-11-21 12:47:17
Программа кодирования : mkvmerge v5.2.0 ('I can't explain') built on Dec 18 2011 18:12:03
Библиотека кодирования : libebml v1.2.3 + libmatroska v1.3.0
Attachements : 2.jpg

Видео
Идентификатор : 1
Формат : AVC
Формат/Информация : Advanced Video Codec
Профиль формата : High@L4.1
Параметр CABAC формата : Да
Параметр ReFrames формата : 13 кадров
Идентификатор кодека : V_MPEG4/ISO/AVC
Продолжительность : 2 ч. 0 м.
Битрейт : 2333 Кбит/сек
Ширина : 1152 пикселя
Высота : 480 пикселей
Соотношение сторон : 2,40:1
Режим частоты кадров : Постоянный
Частота кадров : 23,976 кадра/сек
Цветовое пространство : YUV
Субдискретизация насыщенности : 4:2:0
Битовая глубина : 8 бит
Тип развёртки : Прогрессивная
Бит/(Пиксели*Кадры) : 0.176
Размер потока : 1,92 Гбайт (70%)
Заголовок : Стражи Галактики / Guardians of the Galaxy (2014) BDRip-AVC by HQCLUB [Elheym]
Библиотека кодирования : x264 core 142 r2479kMod dd79a61
Настройки программы : cabac=1 / ref=13 / deblock=1:-3:-2 / analyse=0x3:0x133 / me=umh / subme=11 / psy=1 / fade_compensate=0.00 / psy_rd=1.00:0.00 / mixed_ref=1 / me_range=32 / chroma_me=1 / trellis=2 / 8x8dct=1 / cqm=0 / deadzone=21,11 / fast_pskip=1 / chroma_qp_offset=-4 / threads=6 / lookahead_threads=1 / sliced_threads=0 / nr=0 / decimate=1 / interlaced=0 / bluray_compat=0 / constrained_intra=0 / fgo=0 / bframes=11 / b_pyramid=2 / b_adapt=2 / b_bias=0 / direct=3 / weightb=1 / open_gop=0 / weightp=2 / keyint=230 / keyint_min=23 / scenecut=40 / intra_refresh=0 / rc_lookahead=40 / rc=2pass / mbtree=1 / bitrate=2333 / ratetol=1.0 / qcomp=0.70 / qpmin=0 / qpmax=69 / qpstep=4 / cplxblur=20.0 / qblur=0.5 / vbv_maxrate=50000 / vbv_bufsize=62500 / nal_hrd=none / filler=0 / ip_ratio=1.40 / aq=1:0.90
Язык : English
Default : Да
Forced : Нет

Аудио #1
Идентификатор : 2
Формат : AC-3
Формат/Информация : Audio Coding 3
Расширение режима : CM (complete main)
Параметр Endianness формата : Big
Идентификатор кодека : A_AC3
Продолжительность : 2 ч. 0 м.
Вид битрейта : Постоянный
Битрейт : 448 Кбит/сек
Каналы : 6 каналов
Расположение каналов : Front: L C R, Side: L R, LFE
Частота : 48,0 КГц
Битовая глубина : 16 бит
Метод сжатия : С потерями
Размер потока : 387 Мбайт (14%)
Заголовок : АС3 5.1 @ 448 kbps - Dub, BD EUR
Язык : Russian
Default : Нет
Forced : Нет

Аудио #2
Идентификатор : 3
Формат : AC-3
Формат/Информация : Audio Coding 3
Расширение режима : CM (complete main)
Параметр Endianness формата : Big
Идентификатор кодека : A_AC3
Продолжительность : 2 ч. 0 м.
Вид битрейта : Постоянный
Битрейт : 448 Кбит/сек
Каналы : 6 каналов
Расположение каналов : Front: L C R, Side: L R, LFE
Частота : 48,0 КГц
Битовая глубина : 16 бит
Метод сжатия : С потерями
Размер потока : 387 Мбайт (14%)
Заголовок : АС3 5.1 @ 448 kbps - Original
Язык : English
Default : Нет
Forced : Нет

Текст #1
Идентификатор : 4
Формат : UTF-8
Идентификатор кодека : S_TEXT/UTF8
Идентификатор кодека/Информация : UTF-8 Plain Text
Заголовок : Full, BD
Язык : Russian
Default : Нет
Forced : Нет

Текст #2
Идентификатор : 5
Формат : UTF-8
Идентификатор кодека : S_TEXT/UTF8
Идентификатор кодека/Информация : UTF-8 Plain Text
Заголовок : Full, iTunes
Язык : Russian
Default : Нет
Forced : Нет

Текст #3
Идентификатор : 6
Формат : UTF-8
Идентификатор кодека : S_TEXT/UTF8
Идентификатор кодека/Информация : UTF-8 Plain Text
Заголовок : Forced
Язык : Russian
Default : Нет
Forced : Нет

Текст #4
Идентификатор : 7
Формат : UTF-8
Идентификатор кодека : S_TEXT/UTF8
Идентификатор кодека/Информация : UTF-8 Plain Text
Заголовок : Full
Язык : English
Default : Нет
Forced : Нет

Текст #5
Идентификатор : 8
Формат : UTF-8
Идентификатор кодека : S_TEXT/UTF8
Идентификатор кодека/Информация : UTF-8 Plain Text
Заголовок : Full SDH
Язык : English
Default : Нет
Forced : Нет

Меню
00:00:00.000 : :Chapter 01
00:04:05.703 : :Chapter 02
00:11:21.806 : :Chapter 03
00:15:21.712 : :Chapter 04
00:20:54.419 : :Chapter 05
00:27:11.212 : :Chapter 06
00:33:58.828 : :Chapter 07
00:44:28.290 : :Chapter 08
00:50:53.008 : :Chapter 09
00:55:17.564 : :Chapter 10
00:59:45.206 : :Chapter 11
01:06:06.921 : :Chapter 12
01:14:46.023 : :Chapter 13
01:22:20.644 : :Chapter 14
01:26:29.726 : :Chapter 15
01:30:23.876 : :Chapter 16
01:35:58.377 : :Chapter 17
01:40:46.749 : :Chapter 18
01:47:35.365 : :Chapter 19
01:53:16.623 : :Chapter 20
02:00:10.828 : :Chapter 21
02:00:50.952 : :Chapter 22

"x264 log"

x264 [info]: frame I:1676 Avg QP:13.71 size: 86916
x264 [info]: frame P:42959 Avg QP:17.64 size: 23570
x264 [info]: frame B:129220 Avg QP:19.83 size: 7402

x264 [info]: consecutive B-frames: 4.4% 4.0% 13.4% 18.7% 18.5% 31.5% 4.5% 1.8% 1.5% 0.6% 0.6% 0.6%

x264 [info]: ref P L0: 48.8% 10.0% 15.8% 7.2% 4.7% 3.3% 2.8% 1.7% 1.4% 1.1% 1.0% 0.9% 0.9% 0.3% 0.0%
x264 [info]: ref B L0: 75.2% 10.5% 5.0% 2.5% 2.2% 1.7% 1.0% 0.6% 0.5% 0.4% 0.2% 0.1%
x264 [info]: ref B L1: 92.7% 7.3%


Ссылки для скачивания:

http//bt.hqclub.net/files/ok.png Торрент: Стражи Галактики / Guardians of the Galaxy (2014) BDRip-AVC

Лучшая онлайн игра!


Публикация материалов сайта на сторонних ресурсах возможна только в неизменном виде.


Обсудить релиз на форуме

Вас также может заинтересовать:


  • 4
 (Голосов: 7)


Распечатать новость на принтере Фантастика, Боевик, Приключения
Обновлено: 24.11.2014 - 23:23

КОММЕНТАРИИ

 №1. кит

Статус: Кинокритик | Новостей: 0 | Комментариев: 339
кит ay az
~~~

21.11.2014 - 16:48   цитировать  

 №2. ru4lan

Статус: Кинокритик | Новостей: 0 | Комментариев: 2736
ru4lan ay az
~~~

23.11.2014 - 00:07   цитировать