Вас Приветствует Релиз-группа HQCLUB


Помощь ресурсу, очень ВАЖНО!!!



.


WELCOME
Добро пожаловать в наше интернет - сообщество!

Всех нас объединяет одна страсть - страсть к высококачественному кино. А это наш сайт. Ежедневно здесь мы публикуем десятки качественных, свежих, а порой и эксклюзивных релизов, которые Вы можете скачать совершенно бесплатно и без каких-либо регистраций. Посему рекомендуем Вам добавить HQClub себе в закладки, а также подписаться на нашу ленту новостей, чтобы всегда быть в курсе всех событий. Ну а если Вы такой же синий фил, как и мы, то милости просим на наш форум. И в заключение, попробуйте зарегистрироваться, ведь не так это и сложно и займет всего лишь пару минут! Вот увидите, Вам у нас понравится и Вы вольетесь в наш дружный коллектив! Ну а пока - осматривайтесь = )
Мы рады Вам !





Трансформеры: Эпоха истребления / Transformers: Age of Extinction (2014) BDRip-AVC

Оформил: Elheym | 14 ноября 2014 - 20:38:15 | Комментариев: 1 | Обращений: 1123 {bookmarks_news}

http//lostpic.net/orig_images/e/1/2/e12fc081b83097350133a88c3df61e.jpg

Информация о фильме:
Название: Трансформеры: Эпоха истребления
Оригинальное название: Transformers: Age of Extinction (2014)
Год выхода: 2014
Жанр: фантастика, боевик, приключения
Режиссер: Майкл Бэй / Michael Bay
В ролях: Марк Уолберг, Никола Пельтц, Джек Рейнор, Стэнли Туччи, Келси Грэммер, Титус Уэлливер, ТиДжей Миллер, Ли Бинбин, София Майлс, Питер Каллен

О фильме: Автоботы и десептиконы оставили человечество собирать планету по кусочкам. Между тем группа могущественных бизнесменов и гениальных ученых пытается извлечь уроки из ошибок прошлого и улучшить технологии до такой степени, чтобы выйти за пределы контролируемого ранее. В это время другая группа — древних мощных трансформеров — берет Землю под прицел.

«Сражаться вместе... Или погибнуть вместе»



http//rating.kinopoisk.ru/6518.gif http//tracker.0day.kiev.ua/imdb/imdb_tt21092.gif

Релиз от - http//hqclub.net/images/hqclub.png
Автор рипа: Elheym

Выпущено: США, Китай, Di Bonaventura Pictures, Hasbro Inc., Ian Bryce Productions, Paramount Pictures, Tom DeSanto/Don Murphy Production
Продолжительность: 02:45:07
Перевод : Профессиональный (полное дублирование), BD EUR
Оригинальная аудио дорожка: английский
Субтитры: русские (полные, форсированные), украинские (полные), английские (полные, полные SDH, полные SDH Colored)
Главы: присутствуют, сохранены оригинальные

Файл:
Формат: MKV
Качество: BDRip-AVC (источник: http//i28.fastpic.ru/big/2011/1013/a8/a3d28e80c9544f4c572189fc892ea8.gif / Blu-ray EUR / 1080p)
Видео: 1008x420 (2.40:1), 23.976 fps, MPEG-4 AVC, ~4358 kbps avg, 0.429 bit/pixel
Аудио #1: 48 kHz, AC3 Dolby Digital, 3/2 (L,C,R,l,r) + LFE ch, ~448 kbps avg (DUB)
Аудио #2: 48 kHz, AC3 Dolby Digital, 3/2 (L,C,R,l,r) + LFE ch, ~448 kbps avg (ENG)
Размер: 6.18 GB
Сэмпл: скачать

http//lostpic.net/thumbs_images/8/3/1/8315976f9cc9feb10f83e1380724ea.png http//lostpic.net/thumbs_images/7/0/0/700176013da2c63cbbc4fb5345a79911.png http//lostpic.net/thumbs_images/9/2/2/9221832b0ded32afd64d2907ebe8409e.png http//lostpic.net/thumbs_images/2/c/f/2cfaf250f3d333e711128fd6726108.png http//lostpic.net/thumbs_images/d/0/3/d03d28e2cb623a6227339b272aa9ba19.png http//lostpic.net/thumbs_images/b/5/6/b56dd40a06d41463b96559d7370f228d.png

"MediaInfo"

Уникальный идентификатор : 186025707237488218305036355258850586156 (0x8BF33F7CE453B2B6B1F6B05AC3E5AE2C)
Полное имя : Transformers.Age.of.Extinction.2014.DUAL.BDRip-AVC.x264.AC3.-HQCLUB.mkv
Формат : Matroska
Версия формата : Version 2
Размер файла : 6,18 Гбайт
Продолжительность : 2 ч. 45 м.
Общий поток : 5361 Кбит/сек
Дата кодирования : UTC 2014-11-14 16:54:28
Программа кодирования : mkvmerge v5.2.0 ('I can't explain') built on Dec 18 2011 18:12:03
Библиотека кодирования : libebml v1.2.3 + libmatroska v1.3.0

Видео
Идентификатор : 1
Формат : AVC
Формат/Информация : Advanced Video Codec
Профиль формата : High@L4.1
Параметр CABAC формата : Да
Параметр ReFrames формата : 11 кадров
Идентификатор кодека : V_MPEG4/ISO/AVC
Продолжительность : 2 ч. 45 м.
Битрейт : 4358 Кбит/сек
Ширина : 1008 пикселей
Высота : 420 пикселей
Соотношение сторон : 2,40:1
Режим частоты кадров : Постоянный
Частота кадров : 23,976 кадра/сек
Цветовое пространство : YUV
Субдискретизация насыщенности : 4:2:0
Битовая глубина : 8 бит
Тип развёртки : Прогрессивная
Бит/(Пиксели*Кадры) : 0.429
Размер потока : 5,03 Гбайт (81%)
Заголовок : Трансформеры: Эпоха истребления / Transformers: Age of Extinction (2014) BDRip-AVC by HQCLUB [Elheym]
Библиотека кодирования : x264 core 142 r2479 dd79a61
Настройки программы : cabac=1 / ref=11 / deblock=1:-3:-2 / analyse=0x3:0x113 / me=umh / subme=11 / psy=1 / psy_rd=1.00:0.00 / mixed_ref=1 / me_range=32 / chroma_me=1 / trellis=2 / 8x8dct=1 / cqm=0 / deadzone=21,11 / fast_pskip=0 / chroma_qp_offset=-4 / threads=6 / lookahead_threads=1 / sliced_threads=0 / nr=0 / decimate=1 / interlaced=0 / bluray_compat=0 / constrained_intra=0 / bframes=10 / b_pyramid=2 / b_adapt=2 / b_bias=0 / direct=1 / weightb=1 / open_gop=0 / weightp=2 / keyint=240 / keyint_min=23 / scenecut=40 / intra_refresh=0 / rc_lookahead=40 / rc=crf / mbtree=1 / crf=17.8 / qcomp=0.60 / qpmin=0 / qpmax=69 / qpstep=4 / vbv_maxrate=50000 / vbv_bufsize=62500 / crf_max=0.0 / nal_hrd=none / filler=0 / ip_ratio=1.40 / aq=1:0.90
Язык : English
Default : Да
Forced : Нет

Аудио #1
Идентификатор : 2
Формат : AC-3
Формат/Информация : Audio Coding 3
Расширение режима : CM (complete main)
Параметр Endianness формата : Big
Идентификатор кодека : A_AC3
Продолжительность : 2 ч. 45 м.
Вид битрейта : Постоянный
Битрейт : 448 Кбит/сек
Каналы : 6 каналов
Расположение каналов : Front: L C R, Side: L R, LFE
Частота : 48,0 КГц
Битовая глубина : 16 бит
Метод сжатия : С потерями
Размер потока : 529 Мбайт (8%)
Заголовок : АС3 5.1 @ 448 kbps - Dub, BD EUR
Язык : Russian
Default : Нет
Forced : Нет

Аудио #2
Идентификатор : 3
Формат : AC-3
Формат/Информация : Audio Coding 3
Расширение режима : CM (complete main)
Параметр Endianness формата : Big
Идентификатор кодека : A_AC3
Продолжительность : 2 ч. 45 м.
Вид битрейта : Постоянный
Битрейт : 448 Кбит/сек
Каналы : 6 каналов
Расположение каналов : Front: L C R, Side: L R, LFE
Частота : 48,0 КГц
Битовая глубина : 16 бит
Метод сжатия : С потерями
Размер потока : 529 Мбайт (8%)
Заголовок : АС3 5.1 @ 448 kbps - Original
Язык : English
Default : Нет
Forced : Нет

Текст #1
Идентификатор : 4
Формат : UTF-8
Идентификатор кодека : S_TEXT/UTF8
Идентификатор кодека/Информация : UTF-8 Plain Text
Заголовок : Full (iTunes)
Язык : Russian
Default : Нет
Forced : Нет

Текст #2
Идентификатор : 5
Формат : UTF-8
Идентификатор кодека : S_TEXT/UTF8
Идентификатор кодека/Информация : UTF-8 Plain Text
Заголовок : Forced (iTunes)
Язык : Russian
Default : Нет
Forced : Нет

Текст #3
Идентификатор : 6
Формат : UTF-8
Идентификатор кодека : S_TEXT/UTF8
Идентификатор кодека/Информация : UTF-8 Plain Text
Заголовок : Full, BD EUR
Язык : Ukrainian
Default : Нет
Forced : Нет

Текст #4
Идентификатор : 7
Формат : UTF-8
Идентификатор кодека : S_TEXT/UTF8
Идентификатор кодека/Информация : UTF-8 Plain Text
Заголовок : Full
Язык : English
Default : Нет
Forced : Нет

Текст #5
Идентификатор : 8
Формат : UTF-8
Идентификатор кодека : S_TEXT/UTF8
Идентификатор кодека/Информация : UTF-8 Plain Text
Заголовок : Full SDH (iTunes)
Язык : English
Default : Нет
Forced : Нет

Текст #6
Идентификатор : 9
Формат : UTF-8
Идентификатор кодека : S_TEXT/UTF8
Идентификатор кодека/Информация : UTF-8 Plain Text
Заголовок : Full SDH
Язык : English
Default : Нет
Forced : Нет

Текст #7
Идентификатор : 10
Формат : UTF-8
Идентификатор кодека : S_TEXT/UTF8
Идентификатор кодека/Информация : UTF-8 Plain Text
Заголовок : Full SDH Colored
Язык : English
Default : Нет
Forced : Нет

Меню
00:00:00.000 : :Chapter 01
00:06:51.577 : :Chapter 02
00:14:33.581 : :Chapter 03
00:21:37.462 : :Chapter 04
00:30:13.394 : :Chapter 05
00:38:45.990 : :Chapter 06
00:46:08.056 : :Chapter 07
00:51:39.513 : :Chapter 08
00:59:09.337 : :Chapter 09
01:07:48.647 : :Chapter 10
01:15:14.551 : :Chapter 11
01:23:25.291 : :Chapter 12
01:29:14.724 : :Chapter 13
01:37:16.956 : :Chapter 14
01:44:35.435 : :Chapter 15
01:51:25.053 : :Chapter 16
01:57:47.935 : :Chapter 17
02:04:48.481 : :Chapter 18
02:12:35.864 : :Chapter 19
02:21:04.205 : :Chapter 20
02:28:48.669 : :Chapter 21
02:37:09.628 : :Chapter 22
02:45:07.063 : :Chapter 23

"x264 log"

x264 [info]: frame I:2072 Avg QP:15.90 size:108613
x264 [info]: frame P:60517 Avg QP:20.56 size: 40648
x264 [info]: frame B:174949 Avg QP:23.81 size: 16239

x264 [info]: consecutive B-frames: 3.1% 4.4% 12.8% 40.1% 15.3% 16.6% 2.9% 1.1% 0.8% 1.2% 1.6%

x264 [info]: ref P L0: 48.1% 15.6% 15.3% 6.1% 4.2% 3.0% 2.5% 1.5% 1.3% 1.1% 1.1% 0.3% 0.0%
x264 [info]: ref B L0: 79.4% 9.6% 4.3% 2.2% 1.5% 1.1% 0.9% 0.6% 0.3% 0.2%
x264 [info]: ref B L1: 93.9% 6.1%


Ссылки для скачивания:

http//bt.hqclub.net/files/ok.png Торрент: Трансформеры: Эпоха истребления / Transformers: Age of Extinction (2014) BDRip-AVC

Лучшая онлайн игра!


Публикация материалов сайта на сторонних ресурсах возможна только в неизменном виде.


Обсудить релиз на форуме

Вас также может заинтересовать:


  • 5
 (Голосов: 1)


Распечатать новость на принтере Фантастика, Боевик, Приключения

КОММЕНТАРИИ

 №1. ru4lan

Статус: Кинокритик | Новостей: 0 | Комментариев: 2736
ru4lan спасибо, тяжеловата для меня матроска
~~~

16.11.2014 - 16:57   цитировать