Вас Приветствует Релиз-группа HQCLUB


Помощь ресурсу, очень ВАЖНО!!!



.


WELCOME
Добро пожаловать в наше интернет - сообщество!

Всех нас объединяет одна страсть - страсть к высококачественному кино. А это наш сайт. Ежедневно здесь мы публикуем десятки качественных, свежих, а порой и эксклюзивных релизов, которые Вы можете скачать совершенно бесплатно и без каких-либо регистраций. Посему рекомендуем Вам добавить HQClub себе в закладки, а также подписаться на нашу ленту новостей, чтобы всегда быть в курсе всех событий. Ну а если Вы такой же синий фил, как и мы, то милости просим на наш форум. И в заключение, попробуйте зарегистрироваться, ведь не так это и сложно и займет всего лишь пару минут! Вот увидите, Вам у нас понравится и Вы вольетесь в наш дружный коллектив! Ну а пока - осматривайтесь = )
Мы рады Вам !





Дэдпул / Deadpool (2016) BDRip 720p

Оформил: Rensler | 13 июля 2016 - 08:32:45 | Комментариев: 2 | Обращений: 838 {bookmarks_news}

http//img10.lostpic.net/2016/07/27/50b7ece0864a2dc8a9a5bd2358f07d91.png



Информация о фильме
Название: Дэдпул
Оригинальное название: Deadpool
Год выхода: 2016
Жанр: : Фантастика, Боевик, Комедия, Приключения
В ролях: Райан Рейнольдс (Wade / Deadpool), Морена Баккарин (Vanessa), Эд Скрейн (Ajax), ТиДжей Миллер (Weasel), Джина Карано (Angel Dust), Брианна Хилдебранд (Negasonic Teenage Warhead), Стефан Капичич (Colossus, озвучка), Лесли Уггэмс (Blind Al), Джед Риис (Recruiter), Каран Сони (Dopinder), Майкл Беняер (Warlord), Стайл Дэйн (Jeremy (Pizza Guy))
Режиссёр: Тим Миллер / Tim Miller

О фильме: Уэйд Уилсон — наёмник. Будучи побочным продуктом программы вооружённых сил под названием «Оружие X», Уилсон приобрёл невероятную силу, проворство и способность к исцелению. Но страшной ценой: его клеточная структура постоянно меняется, а здравомыслие сомнительно. Всё, чего Уилсон хочет, — это держаться на плаву в социальной выгребной яме. Но течение в ней слишком быстрое.

«Стань свидетелем, как он кончит»



КиноПоиск: 7.5/10 (138 453 votes)
IMDB: 8.1/10 (451 777 votes)

Релиз от - http//hqclub.net/images/hqclub.png
Автор рипа: Rensler

Выпущено: США, Канада
Студия: 20th Century Fox Film Corporation, Marvel Entertainment, TSG Entertainment
Продолжительность: 01:48:06
Перевод:
• Профессиональный (полное дублирование) «BD CEE»
• Профессиональный (многоголосый, закадровый) «Кубик в Кубе»
- Роли озвучивали: Петр Гланц, Денис Колесников, Ольга Кравцова, Руслан Габидуллин
• Авторский (одноголосый закадровый) «Евгений Гаевский»
Оригинальная аудиодорожка: Английская
Субтитры: Русские (форсированные, полные), Английские (полные, SDH, SDH цветные)
Главы: Сохранены чаптеры с оригинального Blu-ray Disc

Файл:
Формат: MKV
Качество: BDRip 720p (источник: BLUEBIRD / Blu-ray Disc)
Видео: 1280x536 (2,40:1) at 23.976, MPEG-4 AVC ~ 6395 kbps avg, 0.389 bit/pixel
Аудио#1: 48 kHz/16-bit, AC3 Dolby Digital, 3/2 (L,C,R,l,r) + LFE ch, ~ 640 kbps avg | RUS, «BD CEE»
Аудио#2: 48 kHz/16-bit, AC3 Dolby Digital, 3/2 (L,C,R,l,r) + LFE ch, ~ 640 kbps avg | RUS, MVO «Кубик в Кубе» [нецензурная лексика]
Аудио#3: 48 kHz/16-bit, AC3 Dolby Digital, 3/2 (L,C,R,l,r) + LFE ch, ~ 640 kbps avg | RUS, VO «Е. Гаевский» [нецензурная лексика]
Аудио#4: 48 kHz/16-bit, AC3 Dolby Digital, 3/2 (L,C,R,l,r) + LFE ch, ~ 640 kbps avg | ENG
Размер: 6,76 GB
Скачать: Семпл

"MI@logx.264"
logx.264 написал:
x264 [info]: frame I:1281 Avg QP:15.21 size:108348
x264 [info]: frame P:33481 Avg QP:17.00 size: 50568
x264 [info]: frame B:120751 Avg QP:17.85 size: 27739
x264 [info]: ref P L0: 46.8% 6.2% 16.8% 8.7% 6.2% 4.7% 3.7% 2.3% 1.8% 1.5% 0.7% 0.1% 0.0%
x264 [info]: ref B L0: 69.3% 13.9% 6.5% 3.4% 2.4% 1.7% 1.3% 0.8% 0.4% 0.2%

MediaInfo написал:

Уникальный идентификатор : 255034019143892966830998875523295179610 (0xBFDDC3F34399F8928A2BA9C71ECF735A)
Полное имя : Deadpol.BluRay.720p.Rus.Eng.-HQCLUB.mkv
Формат : Matroska
Версия формата : Version 4 / Version 2
Размер файла : 6,76 Гбайт
Продолжительность : 1 ч. 48 м.
Общий поток : 8955 Кбит/сек
Название фильма : Дэдпул / Deadpool (2016) BDRip [720p]
Дата кодирования : UTC 2016-07-12 12:52:44
Программа кодирования : mkvmerge v8.3.0 ('Over the Horizon') 64bit
Библиотека кодирования : libebml v1.3.1 + libmatroska v1.4.2
Attachements : 1.png
DURATION : 01:47:39.317000000
NUMBER_OF_FRAMES : 1853
NUMBER_OF_BYTES : 65998
_STATISTICS_WRITING_APP : mkvmerge v8.3.0 ('Over the Horizon') 64bit
_STATISTICS_WRITING_DATE_UTC : 2016-07-12 12:52:44
_STATISTICS_TAGS : BPS DURATION NUMBER_OF_FRAMES NUMBER_OF_BYTES

Видео
Идентификатор : 1
Формат : AVC
Формат/Информация : Advanced Video Codec
Профиль формата : High@L4.1
Параметр CABAC формата : Да
Параметр ReFrames формата : 11 кадров
Идентификатор кодека : V_MPEG4/ISO/AVC
Продолжительность : 1 ч. 48 м.
Битрейт : 6395 Кбит/сек
Ширина : 1280 пикселей
Высота : 536 пикселей
Соотношение сторон : 2,40:1
Режим частоты кадров : Постоянный
Частота кадров : 23,976 кадра/сек
Цветовое пространство : YUV
Субдискретизация насыщенности : 4:2:0
Битовая глубина : 8 бит
Тип развёртки : Прогрессивная
Бит/(Пиксели*Кадры) : 0.389
Размер потока : 4,69 Гбайт (69%)
Заголовок : Release by Rensler
Библиотека кодирования : x264 core 142 r2431 ac76440
Настройки программы : cabac=1 / ref=11 / deblock=1:-3:-3 / analyse=0x3:0x113 / me=umh / subme=11 / psy=1 / psy_rd=1.03:0.00 / mixed_ref=1 / me_range=48 / chroma_me=1 / trellis=2 / 8x8dct=1 / cqm=0 / deadzone=21,11 / fast_pskip=0 / chroma_qp_offset=-2 / threads=3 / lookahead_threads=1 / sliced_threads=0 / nr=0 / decimate=0 / interlaced=0 / bluray_compat=0 / constrained_intra=0 / bframes=16 / b_pyramid=2 / b_adapt=2 / b_bias=0 / direct=3 / weightb=1 / open_gop=0 / weightp=2 / keyint=230 / keyint_min=23 / scenecut=40 / intra_refresh=0 / rc_lookahead=60 / rc=2pass / mbtree=0 / bitrate=6395 / ratetol=1.0 / qcomp=0.80 / qpmin=0 / qpmax=69 / qpstep=4 / cplxblur=20.0 / qblur=0.5 / vbv_maxrate=50000 / vbv_bufsize=62500 / nal_hrd=none / filler=0 / ip_ratio=1.25 / pb_ratio=1.15 / aq=2:0.90
Язык : English
Default : Да
Forced : Нет

Аудио #1
Идентификатор : 2
Формат : AC-3
Формат/Информация : Audio Coding 3
Расширение режима : CM (complete main)
Параметр Endianness формата : Big
Идентификатор кодека : A_AC3
Продолжительность : 1 ч. 48 м.
Вид битрейта : Постоянный
Битрейт : 640 Кбит/сек
Каналы : 6 каналов
Расположение каналов : Front: L C R, Side: L R, LFE
Частота : 48,0 КГц
Метод сжатия : С потерями
Размер потока : 495 Мбайт (7%)
Заголовок : BD CEE
Язык : Russian
Default : Да
Forced : Нет

Аудио #2
Идентификатор : 3
Формат : AC-3
Формат/Информация : Audio Coding 3
Расширение режима : CM (complete main)
Параметр Endianness формата : Big
Идентификатор кодека : A_AC3
Продолжительность : 1 ч. 48 м.
Вид битрейта : Постоянный
Битрейт : 640 Кбит/сек
Каналы : 6 каналов
Расположение каналов : Front: L C R, Side: L R, LFE
Частота : 48,0 КГц
Метод сжатия : С потерями
Размер потока : 495 Мбайт (7%)
Заголовок : MVO Kubik v kube
Язык : Russian
Default : Нет
Forced : Нет

Аудио #3
Идентификатор : 4
Формат : AC-3
Формат/Информация : Audio Coding 3
Расширение режима : CM (complete main)
Параметр Endianness формата : Big
Идентификатор кодека : A_AC3
Продолжительность : 1 ч. 48 м.
Вид битрейта : Постоянный
Битрейт : 640 Кбит/сек
Каналы : 6 каналов
Расположение каналов : Front: L C R, Side: L R, LFE
Частота : 48,0 КГц
Метод сжатия : С потерями
Размер потока : 495 Мбайт (7%)
Заголовок : AVO Gaevsky
Язык : Russian
Default : Нет
Forced : Нет

Аудио #4
Идентификатор : 5
Формат : AC-3
Формат/Информация : Audio Coding 3
Расширение режима : CM (complete main)
Параметр Endianness формата : Big
Идентификатор кодека : A_AC3
Продолжительность : 1 ч. 48 м.
Вид битрейта : Постоянный
Битрейт : 640 Кбит/сек
Каналы : 6 каналов
Расположение каналов : Front: L C R, Side: L R, LFE
Частота : 48,0 КГц
Метод сжатия : С потерями
Размер потока : 495 Мбайт (7%)
Заголовок : Original
Язык : English
Default : Нет
Forced : Нет

Текст #1
Идентификатор : 6
Формат : UTF-8
Идентификатор кодека : S_TEXT/UTF8
Идентификатор кодека/Информация : UTF-8 Plain Text
Заголовок : Forced
Язык : Russian
Default : Да
Forced : Нет

Текст #2
Идентификатор : 7
Формат : UTF-8
Идентификатор кодека : S_TEXT/UTF8
Идентификатор кодека/Информация : UTF-8 Plain Text
Заголовок : Full
Язык : Russian
Default : Нет
Forced : Нет

Текст #3
Идентификатор : 8
Формат : UTF-8
Идентификатор кодека : S_TEXT/UTF8
Идентификатор кодека/Информация : UTF-8 Plain Text
Заголовок : Full
Язык : English
Default : Нет
Forced : Нет

Текст #4
Идентификатор : 9
Формат : UTF-8
Идентификатор кодека : S_TEXT/UTF8
Идентификатор кодека/Информация : UTF-8 Plain Text
Заголовок : SDH
Язык : English
Default : Нет
Forced : Нет

Текст #5
Идентификатор : 10
Формат : UTF-8
Идентификатор кодека : S_TEXT/UTF8
Идентификатор кодека/Информация : UTF-8 Plain Text
Заголовок : SDH colored
Язык : English
Default : Нет
Forced : Нет

Меню
00:00:00.000 : en:00:00:00.000
00:03:04.726 : en:00:03:04.726
00:05:53.019 : en:00:05:53.019
00:09:30.820 : en:00:09:30.820
00:13:19.090 : en:00:13:19.090
00:16:48.716 : en:00:16:48.716
00:20:12.545 : en:00:20:12.545
00:22:06.408 : en:00:22:06.408
00:27:09.628 : en:00:27:09.628
00:31:58.959 : en:00:31:58.959
00:36:51.709 : en:00:36:51.709
00:41:06.172 : en:00:41:06.172
00:44:45.766 : en:00:44:45.766
00:46:56.605 : en:00:46:56.605
00:50:10.966 : en:00:50:10.966
00:53:18.028 : en:00:53:18.028
00:55:33.038 : en:00:55:33.038
00:59:07.753 : en:00:59:07.753
01:03:05.240 : en:01:03:05.240
01:07:06.439 : en:01:07:06.439
01:09:15.568 : en:01:09:15.568
01:12:29.720 : en:01:12:29.720
01:16:46.393 : en:01:16:46.393
01:20:43.714 : en:01:20:43.714
01:25:53.398 : en:01:25:53.398
01:31:03.792 : en:01:31:03.792
01:34:46.973 : en:01:34:46.973
01:39:52.737 : en:01:39:52.737


http//img10.lostpic.net/2016/07/13/7dc3213bd372371b45eed4caec862f08.th.jpg http//img10.lostpic.net/2016/07/13/266235f662086f7f942caf5c3447cf.th.jpg http//img10.lostpic.net/2016/07/13/b2cbafc3a4d1bd9c12d9d9265e728a8d.th.jpg http//img10.lostpic.net/2016/07/13/b29b60bbd41f9ec36009fca70ee228b9.th.jpg http//img10.lostpic.net/2016/07/13/4723b2d324a6e455ec2d67ccaeb105cb.th.jpg http//img10.lostpic.net/2016/07/13/2c966dca632bfc1ffdb82dce41c46e.th.jpg http//img10.lostpic.net/2016/07/13/3019fc1670990a3a45fdf55f2bfb773d.th.jpg http//img10.lostpic.net/2016/07/13/a61ea5ed25f506e413c3edf63198be64.th.jpg

Ссылки для скачивания:
http//bt.hqclub.net/files/ok.png Торрент: Дэдпул / Deadpool (2016) BDRip 720p


Публикация материалов сайта на сторонних ресурсах возможна только в неизменном виде.


Обсудить релиз на форуме

Вас также может заинтересовать:


  • 4
 (Голосов: 7)


Распечатать новость на принтере Фантастика, Боевик, Комедия, Приключения
Обновлено: 28.07.2016 - 05:56

КОММЕНТАРИИ

 №1. кит

Статус: Кинокритик | Новостей: 0 | Комментариев: 336
кит Rensler ay az

13.07.2016 - 10:47   цитировать  

 №2. Rensler

Статус: Новичок | Новостей: 22 | Комментариев: 10
Rensler кит :gzz:

28.07.2016 - 05:58   цитировать