Вас Приветствует Релиз-группа HQCLUB


Помощь ресурсу, очень ВАЖНО!!!



.


WELCOME
Добро пожаловать в наше интернет - сообщество!

Всех нас объединяет одна страсть - страсть к высококачественному кино. А это наш сайт. Ежедневно здесь мы публикуем десятки качественных, свежих, а порой и эксклюзивных релизов, которые Вы можете скачать совершенно бесплатно и без каких-либо регистраций. Посему рекомендуем Вам добавить HQClub себе в закладки, а также подписаться на нашу ленту новостей, чтобы всегда быть в курсе всех событий. Ну а если Вы такой же синий фил, как и мы, то милости просим на наш форум. И в заключение, попробуйте зарегистрироваться, ведь не так это и сложно и займет всего лишь пару минут! Вот увидите, Вам у нас понравится и Вы вольетесь в наш дружный коллектив! Ну а пока - осматривайтесь = )
Мы рады Вам !





РобоКоп / RoboCop (2014) BDRip-AVC

Оформил: Elheym | 30 июля 2014 - 12:50:55 | Комментариев: 2 | Обращений: 1593 {bookmarks_news}

http//lostpic.net/orig_images/9/7/1/971a54d1c2ad01f3f225de198cdcb7e4.jpg

Информация о фильме:
Название: РобоКоп
Оригинальное название: RoboCop
Год выхода: 2014
Жанр: фантастика, боевик, криминал
Режиссер: Жозе Падилья
В ролях: Юэль Киннаман, Гари Олдман, Майкл Китон, Эбби Корниш, Джеки Эрл Хейли, Сэмюэл Л. Джексон, Майкл К. Уильямс, Дженнифер Или, Марианн Жан-Батист, Айми Гарсиа

О фильме: 2028 год. Международный конгломерат ОмниКорп лидирует в производстве робототехники. Благодаря разработкам компании Америка успешно побеждает в войнах по всему миру. Но теперь пришло время применить технологию на американской земле. Алекс Мерфи — любящий муж, отец и отличный полицейский, оберегающий порядок в Детройте, получает на службе смертельные ранения. Специалисты ОмниКорпа, используя новейшие разработки, сохраняют ему жизнь. Алекс возвращается на службу в родной город не только с новыми сверхспособностями, но и с проблемами, с которыми не сталкивался ни один живой человек.

«У зла нет шансов»



http//rating.kinopoisk.ru/416183.gif http//tracker.0day.kiev.ua/imdb/imdb_tt1234721.gif

Релиз от - http//hqclub.net/images/hqclub.png
Автор рипа: Elheym

Выпущено: США, Metro-Goldwyn-Mayer (MGM), Columbia Pictures, Strike Entertainment
Продолжительность: 01:57:29
Перевод: Профессиональный (полное дублирование) + Оригинал (английский)
Субтитры: русские (полные, форсированные), украинские (полные, форсированные), английские (полные, SDH, форсированные)
Главы: присутствуют, сохранены оригинальные

Дополнительные аудиодорожки:
+ Профессиональный (полное дублирование) украинский |EUR|
+ Авторский (одноголосый, закадровый) А. Гаврилов
+ Авторский (одноголосый, закадровый) Д. Есарев

Файл:
Формат: MKV
Качество: BDRip-AVC (источник: http//lostpic.net/images/20a38122bcc5994b3cdae6e4b4b0.png / Blu-ray Disc EUR / 1080p)
Видео: 1024x426 (2.40:1), 23.976 fps, MPEG-4 AVC, ~2780 kbps avg, 0.266 bit/pixel
Аудио #1: 48 kHz, AC3 Dolby Digital, 3/2 (L,C,R,l,r) + LFE ch, ~384 kbps (DUB)
Аудио #2: 48 kHz, AC3 Dolby Digital, 3/2 (L,C,R,l,r) + LFE ch, ~384 kbps (ENG)
Аудио #3: 48 kHz, AC3 Dolby Digital, 3/2 (L,C,R,l,r) + LFE ch, ~384 kbps (UKR.DUB) (отдельно)
Аудио #4: 48 kHz, AC3 Dolby Digital, 3/2 (L,C,R,l,r) + LFE ch, ~384 kbps (AVO.GAVRILOV) (отдельно)
Аудио #5: 48 kHz, AC3 Dolby Digital, 3/2 (L,C,R,l,r) + LFE ch, ~384 kbps (VO.ESAREV) (отдельно)
Размер: 2.91 GB
Сэмпл: скачать

http//lostpic.net/thumbs_images/d/a/a/daadbe336bfc94314eac0942853c4381.png http//lostpic.net/thumbs_images/d/3/e/d3e812c8eb47f8947407e596bd3f0c0e.png http//lostpic.net/thumbs_images/f/f/7/ff71139ffe7f703e546390a4dd4ea5d9.png http//lostpic.net/thumbs_images/4/4/a/44a674662e69f984de77e2bcf0b9583a.png http//lostpic.net/thumbs_images/d/e/0/de0527c552f4b79961043c12cdc160b3.png http//lostpic.net/thumbs_images/e/c/8/ec80346965e2d8b39b8c7af47b5dc10a.png

"MediaInfo"

Уникальный идентификатор : 243681127104889552055763374588345928084 (0xB7534728363ABC289DBCEF57D9674994)
Полное имя : RoboCop.2014.DUAL.BDRip-AVC.x264.AC3.-HQCLUB.mkv
Формат : Matroska
Версия формата : Version 2
Размер файла : 2,91 Гбайт
Продолжительность : 1 ч. 57 м.
Общий поток : 3547 Кбит/сек
Дата кодирования : UTC 2014-07-30 05:04:40
Программа кодирования : mkvmerge v5.2.0 ('I can't explain') built on Dec 18 2011 18:12:03
Библиотека кодирования : libebml v1.2.3 + libmatroska v1.3.0

Видео
Идентификатор : 1
Формат : AVC
Формат/Информация : Advanced Video Codec
Профиль формата : High@L4.1
Параметр CABAC формата : Да
Параметр ReFrames формата : 14 кадров
Идентификатор кодека : V_MPEG4/ISO/AVC
Продолжительность : 1 ч. 57 м.
Битрейт : 2780 Кбит/сек
Ширина : 1024 пикселя
Высота : 426 пикселей
Соотношение сторон : 2,40:1
Режим частоты кадров : Постоянный
Частота кадров : 23,976 кадра/сек
Цветовое пространство : YUV
Субдискретизация насыщенности : 4:2:0
Битовая глубина : 8 бит
Тип развёртки : Прогрессивная
Бит/(Пиксели*Кадры) : 0.266
Размер потока : 2,22 Гбайт (76%)
Заголовок : РобоКоп / RoboCop (2014) BDRip-AVC by HQCLUB [Elheym]
Библиотека кодирования : x264 core 142 r2431 ac76440
Настройки программы : cabac=1 / ref=14 / deblock=1:-3:-2 / analyse=0x3:0x113 / me=umh / subme=11 / psy=1 / psy_rd=1.05:0.05 / mixed_ref=1 / me_range=32 / chroma_me=1 / trellis=2 / 8x8dct=1 / cqm=0 / deadzone=21,11 / fast_pskip=1 / chroma_qp_offset=-5 / threads=6 / lookahead_threads=1 / sliced_threads=0 / nr=0 / decimate=1 / interlaced=0 / bluray_compat=0 / constrained_intra=0 / bframes=15 / b_pyramid=2 / b_adapt=2 / b_bias=0 / direct=3 / weightb=1 / open_gop=0 / weightp=2 / keyint=240 / keyint_min=23 / scenecut=40 / intra_refresh=0 / rc_lookahead=40 / rc=2pass / mbtree=1 / bitrate=2780 / ratetol=1.0 / qcomp=0.60 / qpmin=10 / qpmax=69 / qpstep=4 / cplxblur=20.0 / qblur=0.5 / vbv_maxrate=50000 / vbv_bufsize=62500 / nal_hrd=none / filler=0 / ip_ratio=1.40 / aq=1:0.90
Язык : English
Default : Да
Forced : Нет

Аудио #1
Идентификатор : 2
Формат : AC-3
Формат/Информация : Audio Coding 3
Расширение режима : CM (complete main)
Параметр Endianness формата : Big
Идентификатор кодека : A_AC3
Продолжительность : 1 ч. 57 м.
Вид битрейта : Постоянный
Битрейт : 384 Кбит/сек
Каналы : 6 каналов
Расположение каналов : Front: L C R, Side: L R, LFE
Частота : 48,0 КГц
Битовая глубина : 16 бит
Метод сжатия : С потерями
Размер потока : 323 Мбайт (11%)
Заголовок : АС3 5.1 @ 384 kbps - Dub
Язык : Russian
Default : Нет
Forced : Нет

Аудио #2
Идентификатор : 3
Формат : AC-3
Формат/Информация : Audio Coding 3
Расширение режима : CM (complete main)
Параметр Endianness формата : Big
Идентификатор кодека : A_AC3
Продолжительность : 1 ч. 57 м.
Вид битрейта : Постоянный
Битрейт : 384 Кбит/сек
Каналы : 6 каналов
Расположение каналов : Front: L C R, Side: L R, LFE
Частота : 48,0 КГц
Битовая глубина : 16 бит
Метод сжатия : С потерями
Размер потока : 323 Мбайт (11%)
Заголовок : АС3 5.1 @ 384 kbps - Original
Язык : English
Default : Нет
Forced : Нет

Текст #1
Идентификатор : 4
Формат : UTF-8
Идентификатор кодека : S_TEXT/UTF8
Идентификатор кодека/Информация : UTF-8 Plain Text
Заголовок : Full
Язык : Russian
Default : Нет
Forced : Нет

Текст #2
Идентификатор : 5
Формат : UTF-8
Идентификатор кодека : S_TEXT/UTF8
Идентификатор кодека/Информация : UTF-8 Plain Text
Заголовок : Forced
Язык : Russian
Default : Нет
Forced : Нет

Текст #3
Идентификатор : 6
Формат : UTF-8
Идентификатор кодека : S_TEXT/UTF8
Идентификатор кодека/Информация : UTF-8 Plain Text
Заголовок : Full
Язык : Ukrainian
Default : Нет
Forced : Нет

Текст #4
Идентификатор : 7
Формат : UTF-8
Идентификатор кодека : S_TEXT/UTF8
Идентификатор кодека/Информация : UTF-8 Plain Text
Заголовок : Forced
Язык : Ukrainian
Default : Нет
Forced : Нет

Текст #5
Идентификатор : 8
Формат : UTF-8
Идентификатор кодека : S_TEXT/UTF8
Идентификатор кодека/Информация : UTF-8 Plain Text
Заголовок : Full
Язык : English
Default : Нет
Forced : Нет

Текст #6
Идентификатор : 9
Формат : UTF-8
Идентификатор кодека : S_TEXT/UTF8
Идентификатор кодека/Информация : UTF-8 Plain Text
Заголовок : Full SDH
Язык : English
Default : Нет
Forced : Нет

Текст #7
Идентификатор : 10
Формат : UTF-8
Идентификатор кодека : S_TEXT/UTF8
Идентификатор кодека/Информация : UTF-8 Plain Text
Заголовок : Forced
Язык : English
Default : Нет
Forced : Нет

Меню
00:00:00.000 : :Chapter 01
00:04:33.898 : :Chapter 03
00:08:51.739 : :Chapter 05
00:14:33.914 : :Chapter 07
00:17:01.603 : :Chapter 09
00:19:27.040 : :Chapter 11
00:21:52.936 : :Chapter 13
00:26:13.571 : :Chapter 15
00:30:47.971 : :Chapter 17
00:32:48.675 : :Chapter 19
00:36:12.378 : :Chapter 21
00:39:06.969 : :Chapter 23
00:43:03.497 : :Chapter 25
00:45:40.654 : :Chapter 27
00:52:10.377 : :Chapter 29
00:57:21.187 : :Chapter 31
01:01:23.888 : :Chapter 33
01:02:59.901 : :Chapter 35
01:06:05.920 : :Chapter 37
01:10:30.476 : :Chapter 39
01:13:26.527 : :Chapter 41
01:18:24.866 : :Chapter 43
01:21:56.202 : :Chapter 45
01:26:04.993 : :Chapter 47
01:28:06.906 : :Chapter 49
01:32:02.975 : :Chapter 51
01:35:52.955 : :Chapter 53
01:38:30.654 : :Chapter 55
01:41:30.751 : :Chapter 57
01:43:44.635 : :Chapter 59
01:46:41.561 : :Chapter 61
01:50:12.689 : :Chapter 63
01:57:28.958 : :Chapter 64

"x264 log"

x264 [info]: frame I:1083 Avg QP:13.91 size: 86951
x264 [info]: frame P:43784 Avg QP:16.39 size: 30645
x264 [info]: frame B:124146 Avg QP:19.25 size: 8139

x264 [info]: consecutive B-frames: 4.8% 6.5% 12.6% 21.9% 17.5% 21.5% 5.6% 1.9% 1.9% 1.2% 1.1% 0.6% 0.9% 0.7% 0.4% 0.8%

x264 [info]: ref P L0: 48.2% 9.3% 16.4% 6.6% 4.9% 3.3% 3.0% 1.6% 1.5% 1.1% 1.1% 0.9% 0.9% 0.8% 0.2% 0.0%
x264 [info]: ref B L0: 71.9% 11.7% 5.3% 3.5% 2.0% 1.6% 1.3% 0.8% 0.6% 0.5% 0.4% 0.3% 0.1%
x264 [info]: ref B L1: 92.0% 8.0%


Ссылки для скачивания:

http//bt.hqclub.net/files/ok.png Торрент: РобоКоп / RoboCop (2014) BDRip-AVC

Лучшая онлайн игра!


Публикация материалов сайта на сторонних ресурсах возможна только в неизменном виде.


Обсудить релиз на форуме

Вас также может заинтересовать:


  • 4
 (Голосов: 3)


Распечатать новость на принтере Фантастика, Боевик, Криминал
Обновлено: 30.07.2014 - 13:28

КОММЕНТАРИИ

 №1. zeffc63

Статус: Кинокритик | Новостей: 0 | Комментариев: 1096
zeffc63 Elheym Спасибо! Смотрел этот фильм в AVI, понравился.. Так что беру..
~~~

2.08.2014 - 19:20   цитировать  

 №2. ru4lan

Статус: Кинокритик | Новостей: 0 | Комментариев: 2736
ru4lan Мой формат и размер
~~~

21.09.2014 - 20:41   цитировать