Вас Приветствует Релиз-группа HQCLUB


Помощь ресурсу, очень ВАЖНО!!!



.


WELCOME
Добро пожаловать в наше интернет - сообщество!

Всех нас объединяет одна страсть - страсть к высококачественному кино. А это наш сайт. Ежедневно здесь мы публикуем десятки качественных, свежих, а порой и эксклюзивных релизов, которые Вы можете скачать совершенно бесплатно и без каких-либо регистраций. Посему рекомендуем Вам добавить HQClub себе в закладки, а также подписаться на нашу ленту новостей, чтобы всегда быть в курсе всех событий. Ну а если Вы такой же синий фил, как и мы, то милости просим на наш форум. И в заключение, попробуйте зарегистрироваться, ведь не так это и сложно и займет всего лишь пару минут! Вот увидите, Вам у нас понравится и Вы вольетесь в наш дружный коллектив! Ну а пока - осматривайтесь = )
Мы рады Вам !





Земля будущего / Tomorrowland (2015) BDRip 720p

Оформил: Rensler | 10 октября 2015 - 18:32:38 | Обращений: 1239 {bookmarks_news}

http//lostpic.net/images/2015/10/10/46ca4f8d65d41c5e11ad1fd73da0d318.png



Информация о фильме
Название: Земля будущего
Оригинальное название: Tomorrowland
Год выхода: 2015
Жанр: Фантастика, Боевик, Детектив, Приключения, Семейный
В ролях: Бритт Робертсон (Casey Newton), Джордж Клуни (Frank Walker), Рэффи Кэссиди (Athena), Хью Лори (Nix), Тим МакГроу (Eddie Newton), Кэтрин Хан (Ursula), Кигэн-Майкл Ки (Hugo), Кристофер Бауэр (Frank's Dad), Томас Робинсон (Young Frank Walker), Пирс Гэнон (Nate Newton), Мэттью МакКоулл (Dave Clark), Джуди Грир (Jenny Newton)
Режиссёр: Брэд Бёрд / Brad Bird

О фильме: Когда в руки к молодой девушке, жаждущей новых приключений, попадает загадочный предмет, открывающий доступ в параллельную реальность, она вынуждена обратиться за помощью к циничному гению-изобретателю Фрэнку. Кейси должна убедить бывшего вундеркинда раскрыть ей тайну загадочного места, находящегося вне привычной реальности, известного как Земля будущего, и убедить Фрэнка вернуться туда, откуда его однажды изгнали…

«Представьте мир, где возможно всё»



User Rating: 6.9/10 (22 072 votes)
IMDB: 6,6/10 (52 511 votes)

Релиз от - http//lostpic.net/images/2015/09/27/68f6040cf6d8c2a9ae7072059386b6f9.png
Автор рипа: Rensler

Выпущено: США, Испания
Студия: Walt Disney Pictures, Babieka, A113
Продолжительность: 02:10:03
Перевод:
• Профессиональный (полное дублирование) BD CEE
Оригинальная аудиодорожка: Английская
Субтитры: Русские (форсированные, полные х 2), Английские (форсированные, полные, SDH, SDH-Colored)
Главы: Сохранены чаптеры с оригинального Blu-ray Disc

Файл:
Формат: MKV
Качество: BDRip 720p (источник: BlueBird / Blu-ray Disc 1080p AVC DD5.1)
Видео: 1280x582 (2.2:1) at 23.976, MPEG-4 AVC ~ 6167 kbps avg, 0.345 bit/pixel
Аудио#1: 48 kHz/16-bit, AC3 Dolby Digital, 3/2 (L,C,R,l,r) + LFE ch, ~ 640 kbps avg | RUS
Аудио#2: 48 kHz/16-bit, AC3 Dolby Digital, 3/2 (L,C,R,l,r) + LFE ch, ~ 640 kbps avg | ENG
Размер: 6,76 GB (DVD-9)
Скачать: Семпл

"log@x.264"
x264 [info]: frame I:1561 Avg QP:14.28 size:144199
x264 [info]: frame P:43818 Avg QP:16.50 size: 58434
x264 [info]: frame B:141713 Avg QP:18.02 size: 22765
x264 [info]: consecutive B-frames: 3.4% 3.4% 9.3% 22.4% 17.7% 35.8% 3.6% 0.9% 0.8% 0.4% 1.8% 0.2% 0.3%
x264 [info]: ref P L0: 50.0% 8.4% 17.3% 8.4% 6.0% 4.4% 3.3% 1.9% 0.3% 0.0%

"MediaInfo"
Уникальный идентификатор : 224087732631854892327881955366181048013 (0xA895BA39CE64D17A820551B609348ECD)
Полное имя : Tomorrowland.2015.720p.BluRay.Rus.Eng.-HQCLUB.mkv
Формат : Matroska
Версия формата : Version 4 / Version 2
Размер файла : 6,76 Гбайт
Продолжительность : 2 ч. 10 м.
Общий поток : 7447 Кбит/сек
Название фильма : Земля будущего / Tomorrowland (2015) BDRip 720p
Дата кодирования : UTC 2010-02-22 21:41:31
Программа кодирования : mkvmerge v5.8.0 ('No Sleep / Pillow') built on Sep 30 2012 10:57:14
Библиотека кодирования : libebml v1.3.0 + libmatroska v1.4.0
Attachements : Cover.png

Видео
Идентификатор : 1
Формат : AVC
Формат/Информация : Advanced Video Codec
Профиль формата : High@L4.1
Параметр CABAC формата : Да
Параметр ReFrames формата : 8 кадров
Идентификатор кодека : V_MPEG4/ISO/AVC
Продолжительность : 2 ч. 10 м.
Битрейт : 6167 Кбит/сек
Ширина : 1280 пикселей
Высота : 582 пикселя
Соотношение сторон : 2,2:1
Режим частоты кадров : Постоянный
Частота кадров : 23,976 кадра/сек
Цветовое пространство : YUV
Субдискретизация насыщенности : 4:2:0
Битовая глубина : 8 бит
Тип развёртки : Прогрессивная
Бит/(Пиксели*Кадры) : 0.345
Размер потока : 5,47 Гбайт (81%)
Заголовок : Release by Rensler
Библиотека кодирования : x264 core 148 r2597 e86f3a1
Настройки программы : cabac=1 / ref=8 / deblock=1:-3:-3 / analyse=0x3:0x133 / me=umh / subme=11 / psy=1 / psy_rd=0.90:0.15 / mixed_ref=1 / me_range=64 / chroma_me=1 / trellis=2 / 8x8dct=1 / cqm=0 / deadzone=21,11 / fast_pskip=0 / chroma_qp_offset=-3 / threads=3 / lookahead_threads=1 / sliced_threads=0 / nr=0 / decimate=0 / interlaced=0 / bluray_compat=0 / constrained_intra=0 / bframes=12 / b_pyramid=2 / b_adapt=2 / b_bias=0 / direct=3 / weightb=1 / open_gop=0 / weightp=2 / keyint=240 / keyint_min=22 / scenecut=40 / intra_refresh=0 / rc_lookahead=60 / rc=2pass / mbtree=0 / bitrate=6167 / ratetol=1.0 / qcomp=0.70 / qpmin=0 / qpmax=69 / qpstep=4 / cplxblur=20.0 / qblur=0.5 / vbv_maxrate=62500 / vbv_bufsize=50000 / nal_hrd=none / filler=0 / ip_ratio=1.30 / pb_ratio=1.25 / aq=2:1.00
Язык : English
Default : Да
Forced : Нет

Аудио #1
Идентификатор : 2
Формат : AC-3
Формат/Информация : Audio Coding 3
Расширение режима : CM (complete main)
Параметр Endianness формата : Big
Идентификатор кодека : A_AC3
Продолжительность : 2 ч. 10 м.
Вид битрейта : Постоянный
Битрейт : 640 Кбит/сек
Каналы : 6 каналов
Расположение каналов : Front: L C R, Side: L R, LFE
Частота : 48,0 КГц
Битовая глубина : 16 бит
Метод сжатия : С потерями
Размер потока : 595 Мбайт (9%)
Заголовок : BD CEE
Язык : Russian
Default : Да
Forced : Нет

Аудио #2
Идентификатор : 3
Формат : AC-3
Формат/Информация : Audio Coding 3
Расширение режима : CM (complete main)
Параметр Endianness формата : Big
Идентификатор кодека : A_AC3
Продолжительность : 2 ч. 10 м.
Вид битрейта : Постоянный
Битрейт : 640 Кбит/сек
Каналы : 6 каналов
Расположение каналов : Front: L C R, Side: L R, LFE
Частота : 48,0 КГц
Битовая глубина : 16 бит
Метод сжатия : С потерями
Размер потока : 595 Мбайт (9%)
Заголовок : Original
Язык : English
Default : Нет
Forced : Нет

Текст #1
Идентификатор : 4
Формат : UTF-8
Идентификатор кодека : S_TEXT/UTF8
Идентификатор кодека/Информация : UTF-8 Plain Text
Заголовок : Forced
Язык : Russian
Default : Да
Forced : Нет

Текст #2
Идентификатор : 5
Формат : UTF-8
Идентификатор кодека : S_TEXT/UTF8
Идентификатор кодека/Информация : UTF-8 Plain Text
Заголовок : Full
Язык : Russian
Default : Нет
Forced : Нет

Текст #3
Идентификатор : 6
Формат : UTF-8
Идентификатор кодека : S_TEXT/UTF8
Идентификатор кодека/Информация : UTF-8 Plain Text
Заголовок : Forced
Язык : English
Default : Нет
Forced : Нет

Текст #4
Идентификатор : 7
Формат : UTF-8
Идентификатор кодека : S_TEXT/UTF8
Идентификатор кодека/Информация : UTF-8 Plain Text
Заголовок : SDH
Язык : English
Default : Нет
Forced : Нет

Текст #5
Идентификатор : 8
Формат : UTF-8
Идентификатор кодека : S_TEXT/UTF8
Идентификатор кодека/Информация : UTF-8 Plain Text
Заголовок : SDH colored
Язык : English
Default : Нет
Forced : Нет

Меню
00:00:00.000 : en:Chapters 01
00:16:12.011 : en:Chapters 02
00:21:56.565 : en:Chapters 03
00:28:52.188 : en:Chapters 04
00:37:37.045 : en:Chapters 05
00:46:35.416 : en:Chapters 06
00:55:01.047 : en:Chapters 07
01:11:48.470 : en:Chapters 08
01:19:18.086 : en:Chapters 09
01:26:45.033 : en:Chapters 10
01:30:57.702 : en:Chapters 11
01:38:05.296 : en:Chapters 12
01:49:50.500 : en:Chapters 13
01:56:11.296 : en:Chapters 14
02:01:26.945 : en:Chapters 15


http//lostpic.net/images/2015/10/10/242b1cb04e3da2343528e47eaa266a26.th.png http//lostpic.net/images/2015/10/10/817cf927a5ef351e8f026275fca1b8.th.png http//lostpic.net/images/2015/10/10/f58812300154f8fd865a0244740cbd.th.png
http//lostpic.net/images/2015/10/10/d24f16e7d9b3ced8f91115ab65aa79bd.th.png http//lostpic.net/images/2015/10/10/58f119e6a92675eee084c2b3cfcc7dc2.th.png http//lostpic.net/images/2015/10/10/2a3769d6558ad341d8d7b9074f4cd25a.th.png

Ссылки для скачивания:
http//bt.hqclub.net/files/ok.png Торрент: Земля будущего / Tomorrowland (2015) BDRip 720p

Лучшая онлайн игра!


Публикация материалов сайта на сторонних ресурсах возможна только в неизменном виде.


Обсудить релиз на форуме

Вас также может заинтересовать:


  • 5
 (Голосов: 5)


Распечатать новость на принтере Фантастика, Боевик, Детектив, Приключения, Семейный
Обновлено: 22.11.2015 - 01:14