Вас Приветствует Релиз-группа HQCLUB


Помощь ресурсу, очень ВАЖНО!!!



.


WELCOME
Добро пожаловать в наше интернет - сообщество!

Всех нас объединяет одна страсть - страсть к высококачественному кино. А это наш сайт. Ежедневно здесь мы публикуем десятки качественных, свежих, а порой и эксклюзивных релизов, которые Вы можете скачать совершенно бесплатно и без каких-либо регистраций. Посему рекомендуем Вам добавить HQClub себе в закладки, а также подписаться на нашу ленту новостей, чтобы всегда быть в курсе всех событий. Ну а если Вы такой же синий фил, как и мы, то милости просим на наш форум. И в заключение, попробуйте зарегистрироваться, ведь не так это и сложно и займет всего лишь пару минут! Вот увидите, Вам у нас понравится и Вы вольетесь в наш дружный коллектив! Ну а пока - осматривайтесь = )
Мы рады Вам !





Морской бой / Battleship (2012) BDRip 720p

Оформил: Sky™ | 20 августа 2012 - 22:11:18 | Комментариев: 1 | Обращений: 2299 {bookmarks_news}

http//lostpic.net/images/43a82675b6b674b8510dd02444cf51.png

Информация о фильме:
Название: Морской бой
Оригинальное название: Battleship
Год выхода: 2012
Жанр: фантастика, боевик, триллер, приключения, военный
Режиссер: Питер Берг
В ролях: Тейлор Китч, Александр Скарсгард, Рианна, Бруклин Декер, Таданобу Асано, Лиам Нисон, Джон Туи, Грегори Д. Гэдсон, Джесси Племонс, Хамиш Линклэйтер

О фильме: Мы посылаем сигналы в космос и ждем ответа. Но уверены ли мы, что хотим его получить? Что если пришельцы потенциально опасны? В 2009 году на конференции в Вашингтоне астронавт Эдгар Митчелл, побывавший на Луне, сделал сенсационное заявление о существовании внеземной жизни. Теперь мы знаем, контакт не просто возможен, он неизбежен!

«Битва за Землю начнётся на воде»



http//www.kinopoisk.ru/rating/466844.gif

Релиз от - http//hqclub.net/images/hqclub.png
Автор рипа: Sky™

Выпущено:
Продолжительность: 02:11:14
Перевод: Профессиональный (полное дублирование) BD EUR + Оригинальная звуковая дорожка (Английский) + Любительский (одноголосый, закадровый) В. Замез
Субтитры: Русские (2 вида) Английские (SDH) (*.srt, внешние)

Файл:
Формат: mkv
Качество: BDRip 720p (источник: http//lostpic.net/images/9c91306e9cffafb1a5062eee37d4276c.png / Blu-Ray Disc / 1080p)
Видео: 1280x534 (2.40:1), 23.976 fps, x264@L4.1 ~4244 kbps avg, 0.259 bit/pixel
Аудио #1: 48 kHz, DTS, 3/2 (L,C,R,l,r) + LFE ch, ~768 kbps avg (RUS) BD EUR
Аудио #2: 48 kHz, DTS, 3/2 (L,C,R,l,r) + LFE ch, ~1509 kbps avg (ENG)
Аудио #3: 48 kHz, DTS, 3/2 (L,C,R,l,r) + LFE ch, ~1509 kbps avg (RUS) VO В. Замез
Размер: 7679.13 Mb
http//lostpic.net/images/1b899dddff9c84e7020a856612f5c646.png

http//lostpic.net/thumbs/367b8f933f08230626709a46045ca8.png http//lostpic.net/thumbs/323b1df519422652d882ed8e1dbc5e.png http//lostpic.net/thumbs/e9a069583aa5107e803121fa008cceab.png http//lostpic.net/thumbs/75bee171b27d2ebbefd11cc1c4d9284a.png
MediaINFO
Полное имя : Morskoj.boj.2012.BDRip.720p.H264.DTS.-HQCLUB.mkv
Формат : Matroska
Версия формата : Version 2
Размер файла : 7,50 Гбайт
Продолжительность : 2 ч. 11 м.
Общий поток : 8180 Кбит/сек
Дата кодирования : UTC 2012-08-20 14:52:22
Программа кодирования : mkvmerge v5.7.0 ('The Whirlwind') built on Jul 8 2012 20:08:51
Библиотека кодирования : libebml v1.2.3 + libmatroska v1.3.0

Видео
Идентификатор : 1
Формат : AVC
Формат/Информация : Advanced Video Codec
Профиль формата : High@L4.1
Параметр CABAC формата : Да
Параметр ReFrames формата : 9 кадров
Идентификатор кодека : V_MPEG4/ISO/AVC
Продолжительность : 2 ч. 11 м.
Битрейт : 4243 Кбит/сек
Ширина : 1280 пикселей
Высота : 534 пикселя
Соотношение сторон : 2,40:1
Частота кадров : 23,976 кадра/сек
Цветовое пространство : YUV
Субдискретизация насыщенности : 4:2:0
Битовая глубина : 8 бит
Тип развёртки : Прогрессивная
Бит/(Пиксели*Кадры) : 0.259
Размер потока : 3,89 Гбайт (52%)
Заголовок : Морской бой / Battleship (2012) BDRip 720p | HQCLUB
Библиотека кодирования : x264 core 120 r2146 bcd41db
Настройки программы : cabac=1 / ref=9 / deblock=1:-3:-3 / analyse=0x3:0x113 / me=umh / subme=9 / psy=1 / psy_rd=1.05:0.00 / mixed_ref=1 / me_range=64 / chroma_me=1 / trellis=2 / 8x8dct=1 / cqm=0 / deadzone=21,11 / fast_pskip=1 / chroma_qp_offset=-2 / threads=6 / sliced_threads=0 / nr=0 / decimate=1 / interlaced=0 / bluray_compat=0 / constrained_intra=0 / bframes=12 / b_pyramid=2 / b_adapt=2 / b_bias=0 / direct=1 / weightb=1 / open_gop=0 / weightp=2 / keyint=230 / keyint_min=22 / scenecut=40 / intra_refresh=0 / rc=cqp / mbtree=0 / qp=20 / ip_ratio=1.40 / pb_ratio=1.30 / aq=0
Язык : English
Default : Да
Forced : Нет

Аудио #1
Идентификатор : 2
Формат : DTS
Формат/Информация : Digital Theater Systems
Идентификатор кодека : A_DTS
Продолжительность : 2 ч. 11 м.
Вид битрейта : Постоянный
Битрейт : 755 Кбит/сек
Каналы : 6 каналов
Расположение каналов : Front: L C R, Side: L R, LFE
Частота : 48,0 КГц
Битовая глубина : 24 бит
Метод сжатия : С потерями
Размер потока : 708 Мбайт (9%)
Заголовок : Дубляж (BD EUR) DTS 5.1 @ 768 kbps
Язык : Russian
Default : Нет
Forced : Да

Аудио #2
Идентификатор : 3
Формат : DTS
Формат/Информация : Digital Theater Systems
Идентификатор кодека : A_DTS
Продолжительность : 2 ч. 11 м.
Вид битрейта : Постоянный
Битрейт : 1510 Кбит/сек
Каналы : 6 каналов
Расположение каналов : Front: L C R, Side: L R, LFE
Частота : 48,0 КГц
Битовая глубина : 24 бит
Метод сжатия : С потерями
Размер потока : 1,38 Гбайт (18%)
Заголовок : Любительский (В. Замез) DTS 5.1 @ 1509 kbps
Язык : Russian
Default : Да
Forced : Да

Аудио #3
Идентификатор : 4
Формат : DTS
Формат/Информация : Digital Theater Systems
Идентификатор кодека : A_DTS
Продолжительность : 2 ч. 11 м.
Вид битрейта : Постоянный
Битрейт : 1510 Кбит/сек
Каналы : 6 каналов
Расположение каналов : Front: L C R, Side: L R, LFE
Частота : 48,0 КГц
Битовая глубина : 24 бит
Метод сжатия : С потерями
Размер потока : 1,38 Гбайт (18%)
Заголовок : Оригинал DTS 5.1 @ 1509 kbps
Язык : English
Default : Нет
Forced : Да

Текст #1
Идентификатор : 5
Формат : UTF-8
Идентификатор кодека : S_TEXT/UTF8
Идентификатор кодека/Информация : UTF-8 Plain Text
Заголовок : Forced
Язык : Russian
Default : Да
Forced : Да

Текст #2
Идентификатор : 6
Формат : UTF-8
Идентификатор кодека : S_TEXT/UTF8
Идентификатор кодека/Информация : UTF-8 Plain Text
Заголовок : Full
Язык : Russian
Default : Нет
Forced : Да

Текст #3
Идентификатор : 7
Формат : UTF-8
Идентификатор кодека : S_TEXT/UTF8
Идентификатор кодека/Информация : UTF-8 Plain Text
Заголовок : SDH
Язык : English
Default : Нет
Forced : Да

Меню
00:00:00.000 : en:00:00:00.000
00:09:24.105 : en:00:09:24.105
00:15:04.320 : en:00:15:04.320
00:23:08.679 : en:00:23:08.679
00:29:44.032 : en:00:29:44.032
00:36:26.810 : en:00:36:26.810
00:42:01.269 : en:00:42:01.269
00:49:09.655 : en:00:49:09.655
00:56:08.323 : en:00:56:08.323
01:00:02.224 : en:01:00:02.224
01:09:50.520 : en:01:09:50.520
01:15:26.731 : en:01:15:26.731
01:20:56.935 : en:01:20:56.935
01:29:47.424 : en:01:29:47.424
01:37:14.412 : en:01:37:14.412
01:43:32.248 : en:01:43:32.248
01:49:38.572 : en:01:49:38.572
01:56:20.682 : en:01:56:20.682
02:00:41.359 : en:02:00:41.359
02:09:33.975 : en:02:09:33.975

x264log
---[NoImage] x264 [info]: frame I:1564 Avg QP:17.00 size:110745
---[NoImage] x264 [info]: frame P:47812 Avg QP:20.00 size: 37147
---[NoImage] x264 [info]: frame B:139432 Avg QP:21.74 size: 17007
---[NoImage] x264 [info]: consecutive B-frames: 4.8% 4.8% 11.4% 21.2% 16.5% 32.0% 4.2% 2.2% 1.1% 1.1% 0.3% 0.1% 0.1%
---[NoImage] x264 [info]: mb I I16..4: 13.2% 72.3% 14.6%
---[NoImage] x264 [info]: mb P I16..4: 3.0% 14.5% 1.7% P16..4: 39.6% 16.4% 11.4% 0.0% 0.0% skip:13.3%
---[NoImage] x264 [info]: mb B I16..4: 0.1% 1.7% 0.4% B16..8: 40.2% 10.2% 3.2% direct: 9.5% skip:34.6% L0:41.6% L1:45.2% BI:13.1%
---[NoImage] x264 [info]: 8x8 transform intra:75.2% inter:69.8%
---[NoImage] x264 [info]: coded y,uvDC,uvAC intra: 82.8% 88.2% 67.2% inter: 31.7% 39.1% 7.9%
---[NoImage] x264 [info]: i16 v,h,dc,p: 27% 21% 8% 45%
---[NoImage] x264 [info]: i8 v,h,dc,ddl,ddr,vr,hd,vl,hu: 11% 10% 4% 10% 15% 13% 15% 10% 12%
---[NoImage] x264 [info]: i4 v,h,dc,ddl,ddr,vr,hd,vl,hu: 10% 9% 3% 10% 16% 13% 15% 11% 14%
---[NoImage] x264 [info]: i8c dc,h,v,p: 40% 23% 16% 21%
---[NoImage] x264 [info]: Weighted P-Frames: Y:23.0% UV:17.0%
---[NoImage] x264 [info]: ref P L0: 46.6% 11.7% 18.1% 6.5% 5.0% 3.6% 3.3% 2.1% 2.0% 0.9% 0.2%
---[NoImage] x264 [info]: ref B L0: 77.9% 10.9% 4.6% 2.4% 1.7% 1.4% 0.8% 0.3%
---[NoImage] x264 [info]: ref B L1: 93.9% 6.1%
---[NoImage] x264 [info]: kb/s:4389.33

Ссылки для скачивания:

http//bt.hqclub.net/files/ok.png Торрент: Морской бой / Battleship (2012) BDRip 720p

Лучшая онлайн игра!


Публикация материалов сайта на сторонних ресурсах возможна только в неизменном виде.


Обсудить релиз на форуме

Вас также может заинтересовать:


  • 4
 (Голосов: 11)


Распечатать новость на принтере Фантастика, Боевик, Триллер, Приключения, Военный
Обновлено: 31.08.2014 - 14:54

КОММЕНТАРИИ

 №1. ru4lan

Статус: Кинокритик | Новостей: 0 | Комментариев: 2736
ru4lan РИанна? Берем!
~~~

11.11.2012 - 22:31   цитировать