Вас Приветствует Релиз-группа HQCLUB


Помощь ресурсу, очень ВАЖНО!!!



.


WELCOME
Добро пожаловать в наше интернет - сообщество!

Всех нас объединяет одна страсть - страсть к высококачественному кино. А это наш сайт. Ежедневно здесь мы публикуем десятки качественных, свежих, а порой и эксклюзивных релизов, которые Вы можете скачать совершенно бесплатно и без каких-либо регистраций. Посему рекомендуем Вам добавить HQClub себе в закладки, а также подписаться на нашу ленту новостей, чтобы всегда быть в курсе всех событий. Ну а если Вы такой же синий фил, как и мы, то милости просим на наш форум. И в заключение, попробуйте зарегистрироваться, ведь не так это и сложно и займет всего лишь пару минут! Вот увидите, Вам у нас понравится и Вы вольетесь в наш дружный коллектив! Ну а пока - осматривайтесь = )
Мы рады Вам !





Темный рыцарь: Возрождение легенды / The Dark Knight Rises IMAX (2012) BDRip-AVC

Оформил: MOSFET | 25 ноября 2012 - 15:02:46 | Комментариев: 5 | Обращений: 2813 {bookmarks_news}

http//lostpic.net/images/1c888b3e9f09fc67bf5ba4d58f1fbe3c.png

Информация о фильме:
Название: Темный рыцарь: Возрождение легенды
Оригинальное название: The Dark Knight Rises
Год выхода: 2012
Жанр: фантастика, боевик, триллер, драма, криминал
Режиссер: Кристофер Нолан
В ролях: Кристиан Бэйл, Том Харди, Энн Хэтэуэй, Джозеф Гордон-Левитт, Марион Котийяр, Гари Олдман, Морган Фриман, Майкл Кейн, Мэтью Модайн, Бен Мендельсон

О фильме:
Восемь лет назад Бэтмен растворился в ночи, превратившись из героя в беглеца. Приняв на себя вину за смерть прокурора Харви Дента, Темный рыцарь пожертвовал всем. Вместе с комиссаром Гордоном они решили, что так будет лучше для всех.
Пока преступность была раздавлена антикриминальным актом Дента, ложь действовала.
Но с появлением хитрой воровки с загадочным прошлым всё меняется. Тем не менее, еще опаснее становится появление террориста Бэйна, чье лицо закрыто маской. Он разворачивает в Готэме чудовищную деятельность, вынуждая Брюса Уэйна выйти из импровизированного изгнания. Однако даже надев свой костюм, Бэтмен может проиграть Бэйну.

«И разгорится пламя»

User Rating: 8.568 / 10 (71 049 votes) Top 250: #25
Imdb: 8.8 / 10 (438 492 votes) Top 250: #32

Релиз от - http//hqclub.net/images/hqclub.png
Автор рипа: MOSFET

Выпущено: США, Великобритания
Продолжительность: 02:44:32
Перевод: Профессиональный (полное дублирование) + Оригинальная звуковая дорожка + Украинская звуковая дорожка (полное дублирование), на narod.yandex.ru + Одноголосый закадровый (zamez), на narod.yandex.ru
Субтитры: Русские, русские (надписи и пр.), английские, английские (SDH) (*.srt, отключаемые)

Файл:
Формат: MKV
Качество: BDRip-AVC (источник: chdbits / Blu-Ray Disc / 1080p)
Видео: 1024x576 (1.78:1), 23.976 fps, x264@L4.1, 2pass, ~2119 kbps avg, 0.15 bit/pixel
Аудио #1: 48 kHz, AC3, 3/2 (L,C,R,l,r) + LFE ch, ~448.00 kbps avg (RUS, DUB)
Аудио #2: 48 kHz, AC3, 3/2 (L,C,R,l,r) + LFE ch, ~448.00 kbps avg (ENG)
Аудио #3: 48 kHz, AC3, 3/2 (L,C,R,l,r) + LFE ch, ~448.00 kbps avg (UKR, DUB) (отдельно, на narod.yandex.ru)
Аудио #4: 48 kHz, AC3, 3/2 (L,C,R,l,r) + LFE ch, ~448.00 kbps avg (RUS, VO) zamez (отдельно, на narod.yandex.ru)
Размер: 3550,94 mb
Скачать: Сэмпл

http//lostpic.net/thumbs/e794d3690b152d17de84fe6f1c1e2bd0.png http//lostpic.net/thumbs/3650ab9b7b0992160ab08109d170d510.png http//lostpic.net/thumbs/c6061a18622f5366d16526f07715c259.png http//lostpic.net/thumbs/96fb014636689de7f5d2bd33417ea0.png http//lostpic.net/thumbs/4ab5bfcf6280067fc41714a693701205.png http//lostpic.net/thumbs/cca7c6629e295a91fa90f4787f9919fd.png http//lostpic.net/thumbs/6a521c5ab7401d208c1809188a29417a.png http//lostpic.net/thumbs/bddc927c5ba8c34ebdef709c116d.png http//lostpic.net/thumbs/e3a861d0e3c8c8b0776f44fb5887ae.png http//lostpic.net/thumbs/2f190f9f2ee2f5964db390c1760cf3.png

MediaINFO
[HTML]Полное имя :Temnyj.rycar.Vozrozhdenie.legendy.2012.DUAL.BDRip-AVC.IMAX.x264.AC3.-HQCLUB.mkv
Формат : Matroska
Версия формата : Version 2
Размер файла : 3,47 Гбайт
Продолжительность : 2 ч. 44 м.
Общий поток : 3017 Кбит/сек
Дата кодирования : UTC 2012-11-24 12:44:36
Программа кодирования : mkvmerge v5.8.0 ('No Sleep / Pillow') built on Sep 2 2012 15:37:04
Библиотека кодирования : libebml v1.2.3 + libmatroska v1.3.0

Видео
Идентификатор : 1
Формат : AVC
Формат/Информация : Advanced Video Codec
Профиль формата : High@L4.1
Параметр CABAC формата : Да
Параметр ReFrames формата : 7 кадров
Идентификатор кодека : V_MPEG4/ISO/AVC
Продолжительность : 2 ч. 44 м.
Битрейт : 2119 Кбит/сек
Ширина : 1024 пикселя
Высота : 576 пикселей
Соотношение сторон : 16:9
Режим частоты кадров : Постоянный
Частота кадров : 23,976 кадра/сек
Цветовое пространство : YUV
Субдискретизация насыщенности : 4:2:0
Битовая глубина : 8 бит
Тип развёртки : Прогрессивная
Бит/(Пиксели*Кадры) : 0.150
Размер потока : 2,37 Гбайт (68%)
Заголовок : Темный рыцарь: Возрождение легенды / The Dark Knight Rises (2012) BDRip-AVC by MOSFET | HQCLUB.NET
Библиотека кодирования : x264 core 125 r2200 999b753
Настройки программы : cabac=1 / ref=7 / deblock=1:-3:-3 / analyse=0x3:0x113 / me=esa / subme=10 / psy=1 / psy_rd=1.00:0.00 / mixed_ref=1 / me_range=64 / chroma_me=1 / trellis=2 / 8x8dct=1 / cqm=0 / deadzone=21,11 / fast_pskip=0 / chroma_qp_offset=-2 / threads=12 / lookahead_threads=2 / sliced_threads=0 / nr=0 / decimate=1 / interlaced=0 / bluray_compat=0 / constrained_intra=0 / bframes=14 / b_pyramid=2 / b_adapt=2 / b_bias=0 / direct=3 / weightb=1 / open_gop=0 / weightp=2 / keyint=240 / keyint_min=23 / scenecut=40 / intra_refresh=0 / rc_lookahead=50 / rc=2pass / mbtree=1 / bitrate=2119 / ratetol=1.0 / qcomp=0.70 / qpmin=0 / qpmax=69 / qpstep=4 / cplxblur=20.0 / qblur=0.5 / vbv_maxrate=50000 / vbv_bufsize=62500 / nal_hrd=none / ip_ratio=1.40 / aq=1:0.80
Язык : English
Default : Да
Forced : Нет

Аудио #1
Идентификатор : 2
Формат : AC-3
Формат/Информация : Audio Coding 3
Расширение режима : CM (complete main)
Параметр Endianness формата : Big
Идентификатор кодека : A_AC3
Продолжительность : 2 ч. 44 м.
Вид битрейта : Постоянный
Битрейт : 448 Кбит/сек
Каналы : 6 каналов
Расположение каналов : Front: L C R, Side: L R, LFE
Частота : 48,0 КГц
Битовая глубина : 16 бит
Метод сжатия : С потерями
Размер потока : 527 Мбайт (15%)
Заголовок : Профессиональный (полное дублирование) BD EUR
Язык : Russian
Default : Да
Forced : Нет

Аудио #2
Идентификатор : 3
Формат : AC-3
Формат/Информация : Audio Coding 3
Расширение режима : CM (complete main)
Параметр Endianness формата : Big
Идентификатор кодека : A_AC3
Продолжительность : 2 ч. 44 м.
Вид битрейта : Постоянный
Битрейт : 448 Кбит/сек
Каналы : 6 каналов
Расположение каналов : Front: L C R, Side: L R, LFE
Частота : 48,0 КГц
Битовая глубина : 16 бит
Метод сжатия : С потерями
Размер потока : 527 Мбайт (15%)
Заголовок : Оригинальная звуковая дорожка
Язык : English
Default : Нет
Forced : Нет

Текст #1
Идентификатор : 4
Формат : UTF-8
Идентификатор кодека : S_TEXT/UTF8
Идентификатор кодека/Информация : UTF-8 Plain Text
Заголовок : Русские
Язык : Russian
Default : Нет
Forced : Нет

Текст #2
Идентификатор : 5
Формат : UTF-8
Идентификатор кодека : S_TEXT/UTF8
Идентификатор кодека/Информация : UTF-8 Plain Text
Заголовок : Русские (надписи и пр.)
Язык : Russian
Default : Да
Forced : Нет

Текст #3
Идентификатор : 6
Формат : UTF-8
Идентификатор кодека : S_TEXT/UTF8
Идентификатор кодека/Информация : UTF-8 Plain Text
Заголовок : Английские
Язык : English
Default : Нет
Forced : Нет

Текст #4
Идентификатор : 7
Формат : UTF-8
Идентификатор кодека : S_TEXT/UTF8
Идентификатор кодека/Информация : UTF-8 Plain Text
Заголовок : Английские (SDH)
Язык : English
Default : Нет
Forced : Нет

Меню
00:00:00.000 : en:00:00:00.000
00:09:02.834 : en:00:09:02.834
00:19:08.522 : en:00:19:08.522
00:30:15.856 : en:00:30:15.856
00:41:08.800 : en:00:41:08.800
00:51:09.525 : en:00:51:09.525
01:00:29.668 : en:01:00:29.668
01:10:04.033 : en:01:10:04.033
01:20:13.475 : en:01:20:13.475
01:31:00.580 : en:01:31:00.580
01:39:24.292 : en:01:39:24.292
01:48:58.490 : en:01:48:58.490
02:00:21.589 : en:02:00:21.589
02:10:47.673 : en:02:10:47.673
02:19:12.636 : en:02:19:12.636
02:30:14.631 : en:02:30:14.631
02:36:50.526 : en:02:36:50.526[/HTML]

x264 log
[HTML]---[NoImage] x264 [info]: frame I:2009 Avg QP:14.72 size: 63133
---[NoImage] x264 [info]: frame P:50570 Avg QP:17.00 size: 23638
---[NoImage] x264 [info]: frame B:184134 Avg QP:19.78 size: 7020
---[NoImage] x264 [info]: consecutive B-frames: 2.1% 3.0% 8.1% 22.9% 16.2% 25.4% 7.7% 7.2% 2.5% 1.1% 0.8% 1.4% 0.5% 0.4% 0.6%
---[NoImage] x264 [info]: ref P L0: 51.4% 9.4% 17.4% 7.5% 5.5% 4.5% 3.8% 0.4% 0.0%
---[NoImage] x264 [info]: ref B L0: 74.2% 13.3% 6.8% 3.4% 1.7% 0.7%
---[NoImage] x264 [info]: ref B L1: 91.0% 9.0%[/HTML]


Ссылки для скачивания:

http//bt.hqclub.net/files/ok.png Торрент: Темный рыцарь: Возрождение легенды / The Dark Knight Rises IMAX (2012) BDRip-AVC

Лучшая онлайн игра!


Публикация материалов сайта на сторонних ресурсах возможна только в неизменном виде.


Обсудить релиз на форуме

Вас также может заинтересовать:


  • 5
 (Голосов: 12)


Распечатать новость на принтере Фантастика, Боевик, Триллер, Драма, Криминал
Обновлено: 27.11.2012 - 21:16

КОММЕНТАРИИ

 №1. zeffc63

Статус: Кинокритик | Новостей: 0 | Комментариев: 1096
zeffc63 MOSFET Вот спасибо дружище, порадовал!!! ab
~~~

25.11.2012 - 18:46   цитировать  

 №2. Marshall Mathers

Статус: Кинокритик | Новостей: 0 | Комментариев: 468
Marshall Mathers Кинцо просто космос!
~~~

25.11.2012 - 20:11   цитировать  

 №3. MOSFET

Статус: Новичок | Новостей: 184 | Комментариев: 33
MOSFET =)

P.S. отличное завершение трилогии!
~~~

25.11.2012 - 20:12   цитировать  

 №4. ru4lan

Статус: Кинокритик | Новостей: 0 | Комментариев: 2736
ru4lan супер
~~~

28.11.2012 - 04:34   цитировать  

 №5. Tayson

Статус: Кинокритик | Новостей: 0 | Комментариев: 375
Tayson Фильмы и игрухи супер, а особенно Batman Arkham Asylum понравилась)
~~~

28.01.2013 - 04:13   цитировать