Вас Приветствует Релиз-группа HQCLUB


Помощь ресурсу, очень ВАЖНО!!!



.


WELCOME
Добро пожаловать в наше интернет - сообщество!

Всех нас объединяет одна страсть - страсть к высококачественному кино. А это наш сайт. Ежедневно здесь мы публикуем десятки качественных, свежих, а порой и эксклюзивных релизов, которые Вы можете скачать совершенно бесплатно и без каких-либо регистраций. Посему рекомендуем Вам добавить HQClub себе в закладки, а также подписаться на нашу ленту новостей, чтобы всегда быть в курсе всех событий. Ну а если Вы такой же синий фил, как и мы, то милости просим на наш форум. И в заключение, попробуйте зарегистрироваться, ведь не так это и сложно и займет всего лишь пару минут! Вот увидите, Вам у нас понравится и Вы вольетесь в наш дружный коллектив! Ну а пока - осматривайтесь = )
Мы рады Вам !





Темный рыцарь: Возрождение легенды / The Dark Knight Rises IMAX (2012) BDRip 720p

Оформил: Sky™ | 25 ноября 2012 - 09:50:03 | Комментариев: 7 | Обращений: 2573 {bookmarks_news}

http//lostpic.net/images/632545f4cbcc091a2869a7a1dcdf450a.png

Информация о фильме:
Название: Темный рыцарь: Возрождение легенды
Оригинальное название: The Dark Knight Rises
Год выхода: 2012
Жанр: Фантастика, боевик, триллер, драма, криминал
Режиссер: Кристофер Нолан
В ролях: Кристиан Бэйл, Том Харди, Энн Хэтэуэй, Джозеф Гордон-Левитт, Марион Котийяр, Гари Олдман, Морган Фриман, Майкл Кейн, Лиам Нисон, Мэтью Модайн

О фильме: Восемь лет назад Бэтмен растворился в ночи, превратившись из героя в беглеца. Приняв на себя вину за смерть прокурора Харви Дента, Темный рыцарь пожертвовал всем. Вместе с комиссаром Гордоном они решили, что так будет лучше для всех. Пока преступность была раздавлена антикриминальным актом Дента, ложь действовала. Но с появлением хитрой воровки с загадочным прошлым всё меняется. Тем не менее, еще опаснее становится появление террориста Бэйна, чье лицо закрыто маской. Он разворачивает в Готэме чудовищную деятельность, вынуждая Брюса Уэйна выйти из импровизированного изгнания. Однако даже надев свой костюм, Бэтмен может проиграть Бэйну.

«И разгорится пламя»



http//www.kinopoisk.ru/rating/437410.gif
Top250 21

Релиз от - http//hqclub.net/images/hqclub.png
Автор рипа: Sky™

Выпущено: США, Великобритания
Продолжительность: 02:44:32
Перевод: Профессиональный (полное дублирование) BD EUR + Оригинальная звуковая дорожка + Украинский (полное дублирование) BD EUR + Любительский (одноголосый, закадровый) ZAMEZ (отдельно, на narod.yandex.ru)
Субтитры: Русские (2 вида), Английские (2 вида) (*.srt, отключаемые)
Сохранены оригинальные чаптеры как на блюрей

Файл:
Формат: mkv
Качество: BDRip 720p (источник: http//lostpic.net/images/9c91306e9cffafb1a5062eee37d4276c.png / Blu-Ray Disc / 1080p)
Видео: 1280x720 (1.77:1), 23.976 fps, x264@L4.1 ~4128 kbps avg, 0.187 bit/pixel
Аудио #1: 48 kHz, AC3 Dolby Digital, 3/2 (L,C,R,l,r) + LFE ch, ~448 kbps (RUS) BD EUR
Аудио #2: 48 kHz, AC3 Dolby Digital, 3/2 (L,C,R,l,r) + LFE ch, ~640 kbps (ENG)
Аудио #3: 48 kHz, AC3 Dolby Digital, 3/2 (L,C,R,l,r) + LFE ch, ~448 kbps (UKR) BD EUR
Аудио #4: 48 kHz, AC3 Dolby Digital, 3/2 (L,C,R,l,r) + LFE ch, ~448 kbps (RUS) VO, ZAMEZ
Размер: 6802.36 Mb
http//lostpic.net/images/1b899dddff9c84e7020a856612f5c646.png

http//lostpic.net/thumbs/5d06a1543912f87803a6ae07fa671e76.png http//lostpic.net/thumbs/6e601c1fa13cf66598b256d0af867f.png http//lostpic.net/thumbs/6e2e9260dd032d3a52169ca237c118c8.png http//lostpic.net/thumbs/dc277bf86a6065df77f716b396c9dacb.png http//lostpic.net/thumbs/17f09a880bae9bec82a0f96323b906d2.png

MediaINFO
[HTML]Полное имя : Temnyj.rycar.Vozrozhdenie.legendy.IMAX.2012.BDRip.720p.x264.AC3.-HQCLUB .mkv
Формат : Matroska
Версия формата : Version 2
Размер файла : 6,64 Гбайт
Продолжительность : 2 ч. 44 м.
Общий поток : 5779 Кбит/сек
Дата кодирования : UTC 2012-11-24 15:43:09
Программа кодирования : mkvmerge v5.7.0 ('The Whirlwind') built on Jul 8 2012 20:08:51
Библиотека кодирования : libebml v1.2.3 + libmatroska v1.3.0

Видео
Идентификатор : 1
Формат : AVC
Формат/Информация : Advanced Video Codec
Профиль формата : High@L4.1
Параметр CABAC формата : Да
Параметр ReFrames формата : 5 кадров
Идентификатор кодека : V_MPEG4/ISO/AVC
Продолжительность : 2 ч. 44 м.
Битрейт : 4128 Кбит/сек
Ширина : 1280 пикселей
Высота : 720 пикселей
Соотношение сторон : 16:9
Режим частоты кадров : Постоянный
Частота кадров : 23,976 кадра/сек
Цветовое пространство : YUV
Субдискретизация насыщенности : 4:2:0
Битовая глубина : 8 бит
Тип развёртки : Прогрессивная
Бит/(Пиксели*Кадры) : 0.187
Размер потока : 4,75 Гбайт (71%)
Заголовок : Темный рыцарь: Возрождение легенды / The Dark Knight Rises IMAX (2012) BDRip 720p | HQCLUB
Библиотека кодирования : x264 core 120 r2146 bcd41db
Настройки программы : cabac=1 / ref=5 / deblock=1:-3:-2 / analyse=0x3:0x113 / me=umh / subme=9 / psy=1 / psy_rd=1.00:0.00 / mixed_ref=1 / me_range=32 / chroma_me=1 / trellis=2 / 8x8dct=1 / cqm=0 / deadzone=21,11 / fast_pskip=1 / chroma_qp_offset=-4 / threads=12 / sliced_threads=0 / nr=0 / decimate=1 / interlaced=0 / bluray_compat=0 / constrained_intra=0 / bframes=12 / b_pyramid=2 / b_adapt=2 / b_bias=0 / direct=1 / weightb=1 / open_gop=0 / weightp=2 / keyint=240 / keyint_min=24 / scenecut=40 / intra_refresh=0 / rc=cqp / mbtree=0 / qp=16 / ip_ratio=1.40 / pb_ratio=1.30 / aq=0
Язык : English
Default : Да
Forced : Нет

Аудио #1
Идентификатор : 2
Формат : AC-3
Формат/Информация : Audio Coding 3
Расширение режима : CM (complete main)
Параметр Endianness формата : Big
Идентификатор кодека : A_AC3
Продолжительность : 2 ч. 44 м.
Вид битрейта : Постоянный
Битрейт : 448 Кбит/сек
Каналы : 6 каналов
Расположение каналов : Front: L C R, Side: L R, LFE
Частота : 48,0 КГц
Битовая глубина : 16 бит
Метод сжатия : С потерями
Размер потока : 527 Мбайт (8%)
Заголовок : Дубляж (BD EUR) AC3 5.1 @ 448 kbps
Язык : Russian
Default : Да
Forced : Нет

Аудио #2
Идентификатор : 3
Формат : AC-3
Формат/Информация : Audio Coding 3
Расширение режима : CM (complete main)
Параметр Endianness формата : Big
Идентификатор кодека : A_AC3
Продолжительность : 2 ч. 44 м.
Вид битрейта : Постоянный
Битрейт : 640 Кбит/сек
Каналы : 6 каналов
Расположение каналов : Front: L C R, Side: L R, LFE
Частота : 48,0 КГц
Битовая глубина : 16 бит
Метод сжатия : С потерями
Размер потока : 753 Мбайт (11%)
Заголовок : Оригинал AC3 5.1 @ 640 kbps
Язык : English
Default : Нет
Forced : Нет

Аудио #3
Идентификатор : 4
Формат : AC-3
Формат/Информация : Audio Coding 3
Расширение режима : CM (complete main)
Параметр Endianness формата : Big
Идентификатор кодека : A_AC3
Продолжительность : 2 ч. 44 м.
Вид битрейта : Постоянный
Битрейт : 448 Кбит/сек
Каналы : 6 каналов
Расположение каналов : Front: L C R, Side: L R, LFE
Частота : 48,0 КГц
Битовая глубина : 16 бит
Метод сжатия : С потерями
Размер потока : 527 Мбайт (8%)
Заголовок : Дубляж (BD EUR) AC3 5.1 @ 448 kbps
Язык : Ukrainian
Default : Нет
Forced : Нет

Текст #1
Идентификатор : 5
Формат : UTF-8
Идентификатор кодека : S_TEXT/UTF8
Идентификатор кодека/Информация : UTF-8 Plain Text
Заголовок : Forced
Язык : Russian
Default : Да
Forced : Нет

Текст #2
Идентификатор : 6
Формат : UTF-8
Идентификатор кодека : S_TEXT/UTF8
Идентификатор кодека/Информация : UTF-8 Plain Text
Заголовок : Full
Язык : Russian
Default : Нет
Forced : Нет

Текст #3
Идентификатор : 7
Формат : UTF-8
Идентификатор кодека : S_TEXT/UTF8
Идентификатор кодека/Информация : UTF-8 Plain Text
Заголовок : SDH
Язык : English
Default : Нет
Forced : Нет

Текст #4
Идентификатор : 8
Формат : UTF-8
Идентификатор кодека : S_TEXT/UTF8
Идентификатор кодека/Информация : UTF-8 Plain Text
Заголовок : Full
Язык : English
Default : Нет
Forced : Нет

Меню
00:00:00.000 : en:00:00:00.000
00:09:02.834 : en:00:09:02.834
00:19:08.522 : en:00:19:08.522
00:30:15.856 : en:00:30:15.856
00:41:08.800 : en:00:41:08.800
00:51:09.525 : en:00:51:09.525
01:00:29.668 : en:01:00:29.668
01:10:04.033 : en:01:10:04.033
01:20:13.475 : en:01:20:13.475
01:31:00.580 : en:01:31:00.580
01:39:24.292 : en:01:39:24.292
01:48:58.490 : en:01:48:58.490
02:00:21.589 : en:02:00:21.589
02:10:47.673 : en:02:10:47.673
02:19:12.636 : en:02:19:12.636
02:30:14.631 : en:02:30:14.631
02:36:50.526 : en:02:36:50.526[/HTML]

x264 log
[HTML]---[NoImage] x264 [info]: consecutive B-frames: 2.3% 2.3% 6.1% 24.8% 14.6% 27.6% 7.5% 10.0% 1.9% 0.6% 0.5% 1.5% 0.3%
---[NoImage] x264 [info]: mb I I16..4: 17.0% 63.3% 19.7%
---[NoImage] x264 [info]: mb P I16..4: 1.6% 7.3% 1.4% P16..4: 36.2% 17.3% 12.9% 0.0% 0.0% skip:23.4%
---[NoImage] x264 [info]: mb B I16..4: 0.1% 0.6% 0.2% B16..8: 37.8% 9.3% 2.8% direct: 6.2% skip:43.1% L0:41.9% L1:44.8% BI:13.2%
---[NoImage] x264 [info]: 8x8 transform intra:69.0% inter:55.3%
---[NoImage] x264 [info]: coded y,uvDC,uvAC intra: 80.4% 81.1% 69.7% inter: 23.2% 24.0% 7.9%
---[NoImage] x264 [info]: i16 v,h,dc,p: 40% 19% 10% 31%
---[NoImage] x264 [info]: i8 v,h,dc,ddl,ddr,vr,hd,vl,hu: 12% 12% 4% 9% 14% 13% 14% 11% 12%
---[NoImage] x264 [info]: i4 v,h,dc,ddl,ddr,vr,hd,vl,hu: 9% 11% 6% 10% 15% 13% 13% 10% 12%
---[NoImage] x264 [info]: i8c dc,h,v,p: 50% 22% 17% 11%
---[NoImage] x264 [info]: Weighted P-Frames: Y:8.2% UV:4.1%
---[NoImage] x264 [info]: ref P L0: 53.8% 10.6% 19.7% 8.1% 6.8% 0.9% 0.1%
---[NoImage] x264 [info]: ref B L0: 78.2% 15.9% 4.7% 1.2%
---[NoImage] x264 [info]: ref B L1: 92.2% 7.8%[/HTML]


Ссылки для скачивания:

http//bt.hqclub.net/files/ok.png Торрент: Темный рыцарь: Возрождение легенды / The Dark Knight Rises IMAX (2012) BDRip 720p

Лучшая онлайн игра!


Публикация материалов сайта на сторонних ресурсах возможна только в неизменном виде.


Обсудить релиз на форуме

Вас также может заинтересовать:


  • 5
 (Голосов: 9)


Распечатать новость на принтере Фантастика, Боевик, Триллер, Драма, Криминал
Обновлено: 27.11.2012 - 21:17

КОММЕНТАРИИ

 №1. zeffc63

Статус: Кинокритик | Новостей: 0 | Комментариев: 1096
zeffc63 AVC можно сделать?
~~~
Ответ от Sky™
сеня будет, другой релизер оформитab

25.11.2012 - 12:04   цитировать  

 №2. pg220

Статус: Новичок | Новостей: 0 | Комментариев: 1
pg220 почему то не воспроизводится, и размер 6,64??? в чем может быть проблема?
~~~
Ответ от Sky™
пробовал на собственном телевизоре Samsung UE40D6100, все работает

25.11.2012 - 18:30   цитировать  

 №3. Marshall Mathers

Статус: Кинокритик | Новостей: 0 | Комментариев: 468
Marshall Mathers Легендарный фильм. Том Харди талантище, Бэйна великолепно сыгранул!
~~~

25.11.2012 - 20:12   цитировать  

 №4. ru4lan

Статус: Кинокритик | Новостей: 0 | Комментариев: 2736
ru4lan тяжела матроска
~~~

28.11.2012 - 04:36   цитировать  

 №5. Kiselek

Статус: Новичок | Новостей: 0 | Комментариев: 1
Раздача будет? Уже не первый день по нулям.
~~~

28.11.2012 - 19:47   цитировать  

 №6. Vidok-Vityok

Статус: Стажер | Новостей: 0 | Комментариев: 79
Vidok-Vityok Качество на высоте! СПС
~~~

6.01.2013 - 16:58   цитировать  

 №7. Gelemar

Статус: Новичок | Новостей: 0 | Комментариев: 8
Gelemar Что с раздачей? Почему не качает?
~~~

7.08.2013 - 17:16   цитировать