Вас Приветствует Релиз-группа HQCLUB


Помощь ресурсу, очень ВАЖНО!!!



.


WELCOME
Добро пожаловать в наше интернет - сообщество!

Всех нас объединяет одна страсть - страсть к высококачественному кино. А это наш сайт. Ежедневно здесь мы публикуем десятки качественных, свежих, а порой и эксклюзивных релизов, которые Вы можете скачать совершенно бесплатно и без каких-либо регистраций. Посему рекомендуем Вам добавить HQClub себе в закладки, а также подписаться на нашу ленту новостей, чтобы всегда быть в курсе всех событий. Ну а если Вы такой же синий фил, как и мы, то милости просим на наш форум. И в заключение, попробуйте зарегистрироваться, ведь не так это и сложно и займет всего лишь пару минут! Вот увидите, Вам у нас понравится и Вы вольетесь в наш дружный коллектив! Ну а пока - осматривайтесь = )
Мы рады Вам !





Годзилла / Godzilla (2014) BDRip-AVC

Оформил: Elheym | 11 сентября 2014 - 19:42:50 | Комментариев: 1 | Обращений: 1261 {bookmarks_news}

http//lostpic.net/orig_images/f/6/7/f67377ed8777bef706c1437b1fe3aeca.jpg

Информация о фильме:
Название: Годзилла
Оригинальное название: Godzilla
Год выхода: 2014
Жанр: фантастика, боевик, триллер
Режиссер: Гарет Эдвардс
В ролях: Элизабет Олсен, Брайан Крэнстон, Аарон Тейлор-Джонсон, Виктор Расук, Жюльет Бинош, Салли Хокинс, Кен Ватанабе, Дэвид Стрэтэйрн, С.Дж. Адамс, Ричард Т. Джонс

О фильме: Ремейк классического экшна про гигантского ящера, терроризирующего Нью-Йорк.

«The king will rise»



http//rating.kinopoisk.ru/260991.gif http//tracker.0day.kiev.ua/imdb/imdb_tt0831387.gif

Релиз от - http//hqclub.net/images/hqclub.png
Автор рипа: Elheym

Выпущено: США, Япония, Disruption Entertainment, Legendary Pictures, Toho Company, Warner Bros. Pictures
Продолжительность: 02:03:07
Перевод: Профессиональный (полное дублирование), BD EUR
Оригинальная аудио дорожка: английский
Субтитры: русские (полные, форсированные), английские (полные, полные SDH)
Главы: присутствуют, сохранены оригинальные

Цитата:
За предоставленные аудио дорожки и субтитры спасибо - http//i28.fastpic.ru/big/2011/1013/a8/a3d28e80c9544f4c572189fc892ea8.gif


Дополнительные аудиодорожки:
+ Профессиональный (полное дублирование), украинский

Файл:
Формат: MKV
Качество: BDRip-AVC (источник: http//img.lostpic.net/images/9c91306e9cffafb1a5062eee37d4276c.png / Blu-ray EUR / 1080p)
Видео: 1152x480 (2.40:1), 23.976 fps, MPEG-4 AVC, ~2610 kbps avg, 0.197 bit/pixel
Аудио #1: AC3 Dolby Digital, 3/2 (L,C,R,l,r) + LFE ch, ~384 kbps (DUB)
Аудио #2: AC3 Dolby Digital, 3/2 (L,C,R,l,r) + LFE ch, ~384 kbps (ENG)
Аудио #3: AC3 Dolby Digital, 3/2 (L,C,R,l,r) + LFE ch, ~384 kbps (UKR.DUB) (отдельно)
Размер: 2.90 GB
Сэмпл: скачать

http//lostpic.net/thumbs_images/3/4/7/347a16aff2188070360130b66ded2185.png http//lostpic.net/thumbs_images/6/0/f/60f77966c8e65bc5d0696c659972ed.png http//lostpic.net/thumbs_images/3/d/4/3d4b7b24319b7e73444adb6400d73c.png http//lostpic.net/thumbs_images/a/9/3/a93145686f3eeb22f6dd14225fa9cf16.png http//lostpic.net/thumbs_images/9/4/8/9e9e60eaec50f46d2814a74400416d.png http//lostpic.net/thumbs_images/6/e/b/6ebfd10bbe81e85568d7d8f1c02119e8.png

"MediaInfo"

Уникальный идентификатор : 177897560344253319874384848816967959323 (0x85D5D2E7D620AA7D9CF4CE158562C31B)
Полное имя : Godzilla.2014.DUAL.BDRip-AVC.x264.AC3.-HQCLUB.mkv
Формат : Matroska
Версия формата : Version 2
Размер файла : 2,91 Гбайт
Продолжительность : 2 ч. 3 м.
Общий поток : 3380 Кбит/сек
Дата кодирования : UTC 2014-09-11 14:22:14
Программа кодирования : mkvmerge v5.2.0 ('I can't explain') built on Dec 18 2011 18:12:03
Библиотека кодирования : libebml v1.2.3 + libmatroska v1.3.0
Attachment : Yes / Yes

Видео
Идентификатор : 1
Формат : AVC
Формат/Информация : Advanced Video Codec
Профиль формата : High@L4.1
Параметр CABAC формата : Да
Параметр ReFrames формата : 15 кадров
Идентификатор кодека : V_MPEG4/ISO/AVC
Продолжительность : 2 ч. 3 м.
Битрейт : 2610 Кбит/сек
Ширина : 1152 пикселя
Высота : 480 пикселей
Соотношение сторон : 2,40:1
Режим частоты кадров : Постоянный
Частота кадров : 23,976 кадра/сек
Цветовое пространство : YUV
Субдискретизация насыщенности : 4:2:0
Битовая глубина : 8 бит
Тип развёртки : Прогрессивная
Бит/(Пиксели*Кадры) : 0.197
Размер потока : 2,19 Гбайт (75%)
Заголовок : Годзилла / Godzilla (2014) BDRip-AVC by HQCLUB [Elheym]
Библиотека кодирования : x264 core 142 r2453 ea0ca51
Настройки программы : cabac=1 / ref=15 / deblock=1:-3:-2 / analyse=0x3:0x113 / me=umh / subme=11 / psy=1 / psy_rd=1.00:0.00 / mixed_ref=1 / me_range=32 / chroma_me=1 / trellis=2 / 8x8dct=1 / cqm=0 / deadzone=21,11 / fast_pskip=0 / chroma_qp_offset=-4 / threads=6 / lookahead_threads=1 / sliced_threads=0 / nr=0 / decimate=1 / interlaced=0 / bluray_compat=0 / constrained_intra=0 / bframes=13 / b_pyramid=2 / b_adapt=2 / b_bias=0 / direct=3 / weightb=1 / open_gop=0 / weightp=2 / keyint=240 / keyint_min=23 / scenecut=40 / intra_refresh=0 / rc_lookahead=50 / rc=2pass / mbtree=1 / bitrate=2610 / ratetol=1.0 / qcomp=0.60 / qpmin=0 / qpmax=69 / qpstep=4 / cplxblur=20.0 / qblur=0.5 / vbv_maxrate=50000 / vbv_bufsize=62500 / nal_hrd=none / filler=0 / ip_ratio=1.40 / aq=1:0.90
Язык : English
Default : Да
Forced : Нет

Аудио #1
Идентификатор : 2
Формат : AC-3
Формат/Информация : Audio Coding 3
Расширение режима : CM (complete main)
Параметр Endianness формата : Big
Идентификатор кодека : A_AC3
Продолжительность : 2 ч. 3 м.
Вид битрейта : Постоянный
Битрейт : 384 Кбит/сек
Каналы : 6 каналов
Расположение каналов : Front: L C R, Side: L R, LFE
Частота : 48,0 КГц
Битовая глубина : 16 бит
Метод сжатия : С потерями
Размер потока : 338 Мбайт (11%)
Заголовок : АС3 5.1 @ 384 kbps - Dub, EUR
Язык : Russian
Default : Нет
Forced : Нет

Аудио #2
Идентификатор : 3
Формат : AC-3
Формат/Информация : Audio Coding 3
Расширение режима : CM (complete main)
Параметр Endianness формата : Big
Идентификатор кодека : A_AC3
Продолжительность : 2 ч. 3 м.
Вид битрейта : Постоянный
Битрейт : 384 Кбит/сек
Каналы : 6 каналов
Расположение каналов : Front: L C R, Side: L R, LFE
Частота : 48,0 КГц
Битовая глубина : 16 бит
Метод сжатия : С потерями
Размер потока : 338 Мбайт (11%)
Заголовок : АС3 5.1 @ 384 kbps - Original
Язык : English
Default : Нет
Forced : Нет

Текст #1
Идентификатор : 4
Формат : UTF-8
Идентификатор кодека : S_TEXT/UTF8
Идентификатор кодека/Информация : UTF-8 Plain Text
Заголовок : Full, BD EUR
Язык : Russian
Default : Нет
Forced : Нет

Текст #2
Идентификатор : 5
Формат : UTF-8
Идентификатор кодека : S_TEXT/UTF8
Идентификатор кодека/Информация : UTF-8 Plain Text
Заголовок : Forced
Язык : Russian
Default : Нет
Forced : Нет

Текст #3
Идентификатор : 6
Формат : UTF-8
Идентификатор кодека : S_TEXT/UTF8
Идентификатор кодека/Информация : UTF-8 Plain Text
Заголовок : Full
Язык : English
Default : Нет
Forced : Нет

Текст #4
Идентификатор : 7
Формат : UTF-8
Идентификатор кодека : S_TEXT/UTF8
Идентификатор кодека/Информация : UTF-8 Plain Text
Заголовок : Full SDH
Язык : English
Default : Нет
Forced : Нет

Меню
00:00:00.000 : :Chapter 01
00:09:22.562 : :Chapter 02
00:19:03.225 : :Chapter 03
00:30:25.532 : :Chapter 04
00:39:10.097 : :Chapter 05
00:49:43.438 : :Chapter 06
00:59:27.188 : :Chapter 07
01:09:50.186 : :Chapter 08
01:19:11.246 : :Chapter 09
01:29:57.266 : :Chapter 10
01:40:14.758 : :Chapter 11
01:52:14.728 : :Chapter 12
01:56:10.088 : :Chapter 13
02:03:06.879 : :Chapter 14

"x264 log"

x264 [info]: frame I:1082 Avg QP:11.93 size: 82729
x264 [info]: frame P:40382 Avg QP:15.13 size: 27643
x264 [info]: frame B:135650 Avg QP:17.24 size: 8876

x264 [info]: consecutive B-frames: 2.1% 3.5% 13.3% 19.1% 17.7% 30.0% 5.7% 4.3% 1.6% 0.6% 0.5% 1.1% 0.2% 0.2%

x264 [info]: ref P L0: 47.0% 8.5% 16.9% 6.5% 5.0% 3.5% 3.4% 1.8% 1.5% 1.2% 1.1% 0.9% 0.9% 0.8% 0.8% 0.2%
x264 [info]: ref B L0: 74.2% 11.6% 5.4% 2.5% 1.6% 1.2% 1.3% 0.6% 0.4% 0.4% 0.3% 0.3% 0.2% 0.1%
x264 [info]: ref B L1: 92.5% 7.5%


Ссылки для скачивания:

http//bt.hqclub.net/files/ok.png Торрент: Годзилла / Godzilla (2014) BDRip-AVC

Лучшая онлайн игра!


Публикация материалов сайта на сторонних ресурсах возможна только в неизменном виде.


Обсудить релиз на форуме

Вас также может заинтересовать:


  • 4
 (Голосов: 2)


Распечатать новость на принтере Фантастика, Боевик, Триллер

КОММЕНТАРИИ

 №1. ru4lan

Статус: Кинокритик | Новостей: 0 | Комментариев: 2736
ru4lan Мой формат и размерчик!
~~~

12.09.2014 - 21:00   цитировать