Вас Приветствует Релиз-группа HQCLUB


Помощь ресурсу, очень ВАЖНО!!!



.


WELCOME
Добро пожаловать в наше интернет - сообщество!

Всех нас объединяет одна страсть - страсть к высококачественному кино. А это наш сайт. Ежедневно здесь мы публикуем десятки качественных, свежих, а порой и эксклюзивных релизов, которые Вы можете скачать совершенно бесплатно и без каких-либо регистраций. Посему рекомендуем Вам добавить HQClub себе в закладки, а также подписаться на нашу ленту новостей, чтобы всегда быть в курсе всех событий. Ну а если Вы такой же синий фил, как и мы, то милости просим на наш форум. И в заключение, попробуйте зарегистрироваться, ведь не так это и сложно и займет всего лишь пару минут! Вот увидите, Вам у нас понравится и Вы вольетесь в наш дружный коллектив! Ну а пока - осматривайтесь = )
Мы рады Вам !





После нашей эры / After Earth (2013) BDRip 720p

Оформил: Elheym | 15 октября 2015 - 14:21:03 | Обращений: 902 {bookmarks_news}

http//lostpic.net/images/2015/10/15/0e8cad973394e6fcc1eef5845ff2d969.jpg

Информация о фильме:
Название: После нашей эры
Оригинальное название: After Earth
Год выхода: 2013
Жанр: фантастика, приключения, боевик
Режиссер: М. Найт Шьямалан / M. Night Shyamalan
В ролях: Уилл Смит, Джейден Смит, Зои Кравиц, Кристофер Хивью, Софи Оконедо, Дэвид Денман, Гленн Моршауэр, Линкольн Льюис.

О фильме:
События разворачиваются через тысячу лет после катастрофы, вынудившей человечество покинуть Землю. Новым домом становится планета под названием Нова Прайм. Легендарный генерал Сайфер Рейдж возвращается с очередного боевого задания в семью, которая раньше обходилась без его родительского внимания, чтобы стать отцом своему 13-летнему сыну Китаю. Во время астероидной бури летательный аппарат с папой и сыном на борту терпит крушение, падая на незнакомую и опасную Землю. И пока Рейдж-старший на последнем дыхании лежит среди обломков своего корабля, сын должен пересечь враждебный ландшафт, чтобы запустить их спасательный маячок. Ни о чем большем юноша в своей жизни не мечтал: быть солдатом, как отец, — его заветное желание. Сегодня у него есть шанс проявить себя.

http//rating.kinopoisk.ru/7285.gif http//tracker.0day.kiev.ua/imdb/imdb_tt1815862.gif

Релиз от - http//i67.fastpic.ru/big/2015/1015/e3/a46e7a31faf2c9f986b16ff19352e3.png
Автор рипа: -MAJESTiC-

Выпущено: Blinding Edge Pictures, Columbia Pictures, Overbrook Entertainment
Продолжительность: 01:40:03
Перевод: Профессиональный (полное дублирование) BD CEE, Профессиональный (полное дублирование) Украинский
Оригинальная аудиодорожка: Английская
Субтитры: Русские (полные 2х), Английские (полные, SDH, SDH цветные) (*.srt, отключаемые)

Файл:
Формат: MKV
Качество: BDRip 720p (источник: rutracker.org / After Earth.2013.BluRay.1080p.DTS-HD.5.1 | thx: Garfiеld)
Видео: 1280x534 at 23.976 fps, x264@L4.1, crf, ~7900 kbps avg, 0.482 bit/pixel
Аудио#1: 48.0 kHz, AC3 Dolby Digital, 3/2 (L,C,R,l,r) + LFE ch, ~ 640 kbps avg | RUS
Аудио#2: 48.0 kHz, AC3 Dolby Digital, 3/2 (L,C,R,l,r) + LFE ch, ~ 640 kbps avg | UKR
Аудио#3: 48.0 kHz, AC3 Dolby Digital, 3/2 (L,C,R,l,r) + LFE ch, ~ 640 kbps avg | ENG
Размер: 7.00 Gb
Скачать: Сэмпл

"MeDIA iNFO"

Общее
Уникальный идентификатор : 241927251024839758845684437912713123309 (0xB6017E63DB7D0B469CAF83FB9BE755ED)
Полное имя : Аfter.Earth.2013.720p.BluRay.DD5.1.x264.Rus.Ukr.Eng.-HQCLUB.mkv
Формат : Matroska
Версия формата : Version 4 / Version 2
Размер файла : 7,00 Гбайт
Продолжительность : 1 ч. 40 м.
Общий поток : 10,0 Мбит/сек
Дата кодирования : UTC 2015-10-15 03:43:33
Программа кодирования : mkvmerge v6.1.0 ('Old Devil') built on Mar 4 2013 09:10:42
Библиотека кодирования : libebml v1.3.0 + libmatroska v1.4.0
Attachment : Yes

Видео
Идентификатор : 1
Формат : AVC
Формат/Информация : Advanced Video Codec
Профиль формата : High@L4.1
Параметр CABAC формата : Да
Параметр ReFrames формата : 10 кадров
Идентификатор кодека : V_MPEG4/ISO/AVC
Продолжительность : 1 ч. 40 м.
Битрейт : 7893 Кбит/сек
Ширина : 1280 пикселей
Высота : 534 пикселя
Соотношение сторон : 2,40:1
Режим частоты кадров : Постоянный
Частота кадров : 23,976 кадра/сек
Цветовое пространство : YUV
Субдискретизация насыщенности : 4:2:0
Битовая глубина : 8 бит
Тип развёртки : Прогрессивная
Бит/(Пиксели*Кадры) : 0.482
Размер потока : 5,52 Гбайт (79%)
Заголовок : После нашей эры / After Earth (2013 ) BDRip 720p by HQCLUB [-MAJESTiC-]
Библиотека кодирования : x264 core 148 r2597 e86f3a1
Настройки программы : cabac=1 / ref=11 / deblock=1:-3:-3 / analyse=0x3:0x113 / me=umh / subme=10 / psy=1 / psy_rd=1.05:0.00 / mixed_ref=1 / me_range=48 / chroma_me=1 / trellis=2 / 8x8dct=1 / cqm=0 / deadzone=6,6 / fast_pskip=0 / chroma_qp_offset=-2 / threads=6 / lookahead_threads=1 / sliced_threads=0 / nr=0 / decimate=1 / interlaced=0 / bluray_compat=0 / constrained_intra=0 / bframes=12 / b_pyramid=1 / b_adapt=2 / b_bias=0 / direct=3 / weightb=1 / open_gop=0 / weightp=2 / keyint=230 / keyint_min=23 / scenecut=40 / intra_refresh=0 / rc_lookahead=80 / rc=crf / mbtree=0 / crf=13.6 / qcomp=0.65 / qpmin=0 / qpmax=69 / qpstep=4 / vbv_maxrate=40000 / vbv_bufsize=30000 / crf_max=0.0 / nal_hrd=none / filler=0 / ip_ratio=1.25 / pb_ratio=1.20 / aq=1:0.61 / zones=57516,58722,b=1.25/84433,84503,b=1.1/84877,84903,b=1.15/85318,85421,b=1.1/87066,87191,b=1.15/87378,87432,b=1.15/87770,88253,b=1.3/118377,118724,b=1.3/119401,119532,b=1.15/119878,120106,b=1.1/122347,122383,b=1.05/122689,122731,b=1.1/122781,122867,b=1.1/126652,126768,b=1.15/127290,127336,b=1.2
Язык : English
Default : Нет
Forced : Нет

Аудио #1
Идентификатор : 2
Формат : AC-3
Формат/Информация : Audio Coding 3
Расширение режима : CM (complete main)
Параметр Endianness формата : Big
Идентификатор кодека : A_AC3
Продолжительность : 1 ч. 40 м.
Вид битрейта : Постоянный
Битрейт : 640 Кбит/сек
Каналы : 6 каналов
Расположение каналов : Front: L C R, Side: L R, LFE
Частота : 48,0 КГц
Битовая глубина : 16 бит
Метод сжатия : С потерями
Размер потока : 458 Мбайт (6%)
Заголовок : AC3 DD 5.1 @ 640 kbps, DUB CEE
Язык : Russian
Default : Да
Forced : Нет

Аудио #2
Идентификатор : 3
Формат : AC-3
Формат/Информация : Audio Coding 3
Расширение режима : CM (complete main)
Параметр Endianness формата : Big
Идентификатор кодека : A_AC3
Продолжительность : 1 ч. 40 м.
Вид битрейта : Постоянный
Битрейт : 640 Кбит/сек
Каналы : 6 каналов
Расположение каналов : Front: L C R, Side: L R, LFE
Частота : 48,0 КГц
Битовая глубина : 16 бит
Метод сжатия : С потерями
Размер потока : 458 Мбайт (6%)
Заголовок : AC3 DD 5.1 @ 640 kbps, DUB CEE
Язык : Ukrainian
Default : Нет
Forced : Нет

Аудио #3
Идентификатор : 4
Формат : AC-3
Формат/Информация : Audio Coding 3
Расширение режима : CM (complete main)
Параметр Endianness формата : Big
Идентификатор кодека : A_AC3
Продолжительность : 1 ч. 40 м.
Вид битрейта : Постоянный
Битрейт : 640 Кбит/сек
Каналы : 6 каналов
Расположение каналов : Front: L C R, Side: L R, LFE
Частота : 48,0 КГц
Битовая глубина : 16 бит
Метод сжатия : С потерями
Размер потока : 458 Мбайт (6%)
Заголовок : AC3 DD 5.1 @ 640 kbps, Original
Язык : English
Default : Нет
Forced : Нет

Текст #1
Идентификатор : 5
Формат : UTF-8
Идентификатор кодека : S_TEXT/UTF8
Идентификатор кодека/Информация : UTF-8 Plain Text
Заголовок : Full
Язык : Russian
Default : Нет
Forced : Нет

Текст #2
Идентификатор : 6
Формат : UTF-8
Идентификатор кодека : S_TEXT/UTF8
Идентификатор кодека/Информация : UTF-8 Plain Text
Заголовок : Voronine
Язык : Russian
Default : Нет
Forced : Нет

Текст #3
Идентификатор : 7
Формат : UTF-8
Идентификатор кодека : S_TEXT/UTF8
Идентификатор кодека/Информация : UTF-8 Plain Text
Заголовок : Full
Язык : English
Default : Нет
Forced : Нет

Текст #4
Идентификатор : 8
Формат : UTF-8
Идентификатор кодека : S_TEXT/UTF8
Идентификатор кодека/Информация : UTF-8 Plain Text
Заголовок : SDH
Язык : English
Default : Нет
Forced : Нет

Текст #5
Идентификатор : 9
Формат : UTF-8
Идентификатор кодека : S_TEXT/UTF8
Идентификатор кодека/Информация : UTF-8 Plain Text
Заголовок : SDH COLORED
Язык : English
Default : Нет
Forced : Нет

Меню
00:00:00.000 : :Chapter 01
00:08:52.697 : :Chapter 02
00:15:36.393 : :Chapter 03
00:21:34.792 : :Chapter 04
00:30:50.557 : :Chapter 05
00:36:45.952 : :Chapter 06
00:41:14.429 : :Chapter 07
00:47:06.072 : :Chapter 08
00:52:36.318 : :Chapter 09
00:59:48.585 : :Chapter 10
01:05:25.795 : :Chapter 11
01:11:10.181 : :Chapter 12
01:15:47.333 : :Chapter 13
01:20:17.686 : :Chapter 14
01:24:38.782 : :Chapter 15
01:29:57.390 : :Chapter 16

"log x264"

x264 [info]: frame I:1095 Avg QP:12.13 size:149441
x264 [info]: frame P:28434 Avg QP:13.12 size: 74631
x264 [info]: frame B:114399 Avg QP:14.58 size: 33077

x264 [info]: consecutive B-frames: 1.6% 2.4% 3.9% 21.7% 13.3% 30.8% 6.4% 14.6% 1.5% 0.7% 0.4% 2.5% 0.2%

x264 [info]: ref P L0: 56.1% 11.4% 12.7% 6.1% 4.2% 3.1% 2.4% 1.5% 1.2% 1.1% 0.1% 0.0%
x264 [info]: ref B L0: 82.2% 7.6% 3.7% 1.9% 1.5% 1.2% 0.9% 0.6% 0.4%
x264 [info]: ref B L1: 94.0% 6.0%
encoded 143928 frames, 8088.81 kb/s

"Source vs Encode"

----------------Source---------------------------------------Encode----------------------------------Talian---------------------
http//i5.imageban.ru/thumbs/2015.09.12/cec4ad76111b22830aeda1bbcb9d76.png http//i4.imageban.ru/thumbs/2015.09.12/e3cd5c23b8c7695f9fb5a65362a43b36.png http//i4.imageban.ru/thumbs/2015.09.12/06688904f61fe16464b59dbbf66d72f6.png
http//i1.imageban.ru/thumbs/2015.09.12/69fb6fa4cbca04f58c3cbdbe06cdde68.png http//i2.imageban.ru/thumbs/2015.09.12/640faf97c726da74f1f12cc1ebeba12c.png http//i6.imageban.ru/thumbs/2015.09.12/b36d56a5ce0aa299b821455eceabec1f.png
http//i6.imageban.ru/thumbs/2015.09.12/97d0d93d7afb50ba804a37d16a8e645b.png http//i2.imageban.ru/thumbs/2015.09.12/80bba4a3c32e16e58c1d2e4360ef5a95.png http//i1.imageban.ru/thumbs/2015.09.12/23611d42400a74e9190c3d6546156b7b.png
http//i2.imageban.ru/thumbs/2015.09.12/543292a2fc27d863a5c36979a829b8.png http//i2.imageban.ru/thumbs/2015.09.12/75d8b9701a28ed1cfdd92c1c37a280c6.png http//i4.imageban.ru/thumbs/2015.09.12/b35e41cf3822afc5ccf26fef0542be.png
http//i1.imageban.ru/thumbs/2015.09.12/00f1a66acaa8611bfa5603eba102.png http//i1.imageban.ru/thumbs/2015.09.12/ebacabf3096e517c61099d66db99fe54.png http//i2.imageban.ru/thumbs/2015.09.12/f98d3e9c3625e0b0be3967de18c8bead.png
http//i5.imageban.ru/thumbs/2015.09.12/c954ea9130468e6e9cdd1a3d3b4519.png http//i1.imageban.ru/thumbs/2015.09.12/fd5ed43d466dfb5f7afc0a02972f8abc.png http//i2.imageban.ru/thumbs/2015.09.12/4df551bceef421f53e1a4eca965f8293.png
http//i5.imageban.ru/thumbs/2015.09.12/4c85d6799361189c9e3ae63c663eb3b1.png http//i5.imageban.ru/thumbs/2015.09.12/8b984e07aceae145f8e31da9b30081.png http//i2.imageban.ru/thumbs/2015.09.12/f3bd8803f0d4b460903693ce3665da.png
http//i5.imageban.ru/thumbs/2015.09.12/61eaecd7c937b8beb21ce415681640f6.png http//i6.imageban.ru/thumbs/2015.09.12/b615f76f38cc1467a3a7329c2b92f0f0.png http//i4.imageban.ru/thumbs/2015.09.12/a8fd152c3591c7a643bd5a3c23b910.png


http//i1.imageban.ru/thumbs/2015.09.12/8b079f5e5bfd345b02af2b3404599e5f.png http//i5.imageban.ru/thumbs/2015.09.12/a734112fb66aca131cd13ae85f14c8fe.png http//i2.imageban.ru/thumbs/2015.09.12/fc71919e8eb2e1e351bcdb074c59e668.png http//i6.imageban.ru/thumbs/2015.09.12/1b20e7ec4e40f6ae2d1d2178ef1615d0.png http//i6.imageban.ru/thumbs/2015.09.12/ce97005a072db4a9d5ed3928066f0600.png http//i5.imageban.ru/thumbs/2015.09.12/cc1a7afd3247320972b38d417b71a5.png

Ссылки для скачивания:

http//bt.hqclub.net/files/ok.png Торрент: После нашей эры / After Earth (2013) BDRip 720p

Лучшая онлайн игра!


Публикация материалов сайта на сторонних ресурсах возможна только в неизменном виде.


Обсудить релиз на форуме

Вас также может заинтересовать:


  • 5
 (Голосов: 3)


Распечатать новость на принтере Фантастика, Приключения, Боевик
Обновлено: 18.10.2015 - 13:14