Вас Приветствует Релиз-группа HQCLUB


Помощь ресурсу, очень ВАЖНО!!!



.


WELCOME
Добро пожаловать в наше интернет - сообщество!

Всех нас объединяет одна страсть - страсть к высококачественному кино. А это наш сайт. Ежедневно здесь мы публикуем десятки качественных, свежих, а порой и эксклюзивных релизов, которые Вы можете скачать совершенно бесплатно и без каких-либо регистраций. Посему рекомендуем Вам добавить HQClub себе в закладки, а также подписаться на нашу ленту новостей, чтобы всегда быть в курсе всех событий. Ну а если Вы такой же синий фил, как и мы, то милости просим на наш форум. И в заключение, попробуйте зарегистрироваться, ведь не так это и сложно и займет всего лишь пару минут! Вот увидите, Вам у нас понравится и Вы вольетесь в наш дружный коллектив! Ну а пока - осматривайтесь = )
Мы рады Вам !





Кин-дза-дза! (1986) BDRip-AVC

Оформил: Sky™ | 6 апреля 2014 - 10:47:52 | Комментариев: 1 | Обращений: 1390 {bookmarks_news}

http//lostpic.net/orig_images/4/b/b/4bbea38d224711c1f2e4520d7580ac.png

Информация о фильме
Оригинальное название: Кин-дза-дза!
Год выхода: 1986
Жанр: фантастика, драма, комедия
Режиссер: Георгий Данелия
В ролях: Станислав Любшин, Евгений Леонов, Юрий Яковлев, Леван Габриадзе, Ольга Машная, Ирина Шмелева, Лев Перфилов, Георгий Данелия, Александра Дорохина, Галина Данелия-Юркова
О фильме: Прораб Владимир Николаевич Машков и не подозревал, что обычный путь до универсама за хлебом и макаронами обернется межгалактическими путешествиями. А все эта встреча со студентом в кроличьей шапке с большой сумкой и с каким-то маленьким устройством — «машинкой перемещения», как он ее сам называл.
Короче, нажал на кнопку — и оказался вместе с молодым человеком в пустыне, и не в каких-нибудь Каракумах, а на планете-пустыне Плюк в тентуре, галактика Кин-дза-дза в спирали…

User Rating: 7.989/10 (26154 votes)

Релиз от - http//hqclub.net/images/hqclub.png
Автор рипа: Sky™

Выпущено: СССР
Продолжительность: 01:06:12 + 01:06:36 = 02:12:49
Субтитры: нет

Файл:
Формат: mkv
Качество: BDRip-AVC (источник: http//hdclub.org/dox/sitebutton_tracker.hdclub.com.ua1.gif / Blu-ray Disc / 1080p)
Видео #1: 794x576 (1.378:1), 23976 fps, X264@L4.1 ~2679 kbps avg, 0.244 bit/pixel
Видео #2: 770x576 (1.336:1), 23976 fps, X264@L4.1 ~2694 kbps avg, 0.251 bit/pixel
Аудио: 48 kHz, AC3 Dolby Digital, 3/2 (L,C,R,l,r) + LFE ch, ~448.00 kbps avg
Размер: 1481.69 Mb + 1482.15 Mb
http//lostpic.net/images/1b899dddff9c84e7020a856612f5c646.png

http//lostpic.net/thumbs_images/8/f/2/8f268ab759858987c3399f89ba11de75.png http//lostpic.net/thumbs_images/e/9/c/e9c7ea26fa081cc5654ef08116f9be.png http//lostpic.net/thumbs_images/2/8/6/28670422b1cc9e853eb8db86cacc38b6.png http//lostpic.net/thumbs_images/0/1/e/01e1603210ebe7126da39396d630ee7f.png http//lostpic.net/thumbs_images/0/5/0/050653973822f4452f9b221f94073773.png http//lostpic.net/thumbs_images/c/7/a/c7a1bfcb1c05225bd7ef7747f7e6bb.png http//lostpic.net/thumbs_images/e/5/d/e5d9a6862932f55403cf3367a6f9da5b.png http//lostpic.net/thumbs_images/0/2/4/024a9d1b74e793ba78aab11671f4b50c.png http//lostpic.net/thumbs_images/7/4/7/747029c9db07fc264c0fd25535afaac2.png http//lostpic.net/thumbs_images/e/3/3/e331dfabba2a750b20b031566f519238.png http//lostpic.net/thumbs_images/5/6/9/569264e1f1b66c29dd90ef65fc69e924.png

MediaINFO Видео #1
[HTML]Полное имя : Kin.dza.dza!1986.PART1.RUS.BDRip-AVC.X264.AC3.-HQCLUB.mkv
Формат : Matroska
Версия формата : Version 4 / Version 2
Размер файла : 1,45 Гбайт
Продолжительность : 1 ч. 6 м.
Общий поток : 3128 Кбит/сек
Дата кодирования : UTC 2014-03-30 14:39:46
Программа кодирования : mkvmerge v6.6.0 ('The Edge Of The In Between') built on Dec 1 2013 17:55:00
Библиотека кодирования : libebml v1.3.0 + libmatroska v1.4.1

Видео
Идентификатор : 1
Формат : AVC
Формат/Информация : Advanced Video Codec
Профиль формата : High@L4.1
Параметр CABAC формата : Да
Параметр ReFrames формата : 4 кадра
Идентификатор кодека : V_MPEG4/ISO/AVC
Продолжительность : 1 ч. 6 м.
Битрейт : 2679 Кбит/сек
Ширина : 794 пикселя
Высота : 576 пикселей
Соотношение сторон : 1,378
Частота кадров : 23,976 кадра/сек
Цветовое пространство : YUV
Субдискретизация насыщенности : 4:2:0
Битовая глубина : 8 бит
Тип развёртки : Прогрессивная
Бит/(Пиксели*Кадры) : 0.244
Размер потока : 1,21 Гбайт (84%)
Заголовок : Кин-дза-дза! (1986) [1 серия] BDRip-AVC | HQCLUB
Библиотека кодирования : x264 core 138 r2358 9e941d1
Настройки программы : cabac=1 / ref=4 / deblock=1:-3:-2 / analyse=0x3:0x113 / me=umh / subme=11 / psy=1 / psy_rd=1.00:0.00 / mixed_ref=1 / me_range=48 / chroma_me=1 / trellis=2 / 8x8dct=1 / cqm=0 / deadzone=21,11 / fast_pskip=0 / chroma_qp_offset=-4 / threads=12 / lookahead_threads=2 / sliced_threads=0 / nr=0 / decimate=1 / interlaced=0 / bluray_compat=0 / constrained_intra=0 / bframes=9 / b_pyramid=2 / b_adapt=2 / b_bias=0 / direct=3 / weightb=1 / open_gop=0 / weightp=2 / keyint=250 / keyint_min=25 / scenecut=40 / intra_refresh=0 / rc_lookahead=40 / rc=2pass / mbtree=0 / bitrate=2679 / ratetol=1.0 / qcomp=0.60 / qpmin=0 / qpmax=69 / qpstep=4 / cplxblur=20.0 / qblur=0.5 / vbv_maxrate=62500 / vbv_bufsize=50000 / nal_hrd=none / ip_ratio=1.40 / pb_ratio=1.30 / aq=1:0.70
Язык : Russian
Default : Да
Forced : Нет

Аудио
Идентификатор : 2
Формат : AC-3
Формат/Информация : Audio Coding 3
Расширение режима : CM (complete main)
Идентификатор кодека : A_AC3
Продолжительность : 1 ч. 6 м.
Вид битрейта : Постоянный
Битрейт : 448 Кбит/сек
Каналы : 6 каналов
Расположение каналов : Front: L C R, Side: L R, LFE
Частота : 48,0 КГц
Битовая глубина : 16 бит
Метод сжатия : С потерями
Размер потока : 212 Мбайт (14%)
Заголовок : Оригинальная звуковая дорожка
Язык : Russian
Default : Да
Forced : Нет

Меню
00:00:00.000 : en:00:00:00.000
00:08:32.512 : en:00:08:32.512
00:16:33.284 : en:00:16:33.284
00:20:35.901 : en:00:20:35.901
00:25:14.138 : en:00:25:14.138
00:33:52.030 : en:00:33:52.030
00:42:38.097 : en:00:42:38.097
00:48:46.006 : en:00:48:46.006
00:54:04.992 : en:00:54:04.992
01:03:32.225 : en:01:03:32.225
[/HTML]

MediaINFO Видео #2
[HTML]Полное имя : Kin.dza.dza!1986.PART2.RUS.BDRip-AVC.X264.AC3.-HQCLUB.mkv
Формат : Matroska
Версия формата : Version 4 / Version 2
Размер файла : 1,45 Гбайт
Продолжительность : 1 ч. 6 м.
Общий поток : 3111 Кбит/сек
Дата кодирования : UTC 2014-03-30 15:38:44
Программа кодирования : mkvmerge v6.6.0 ('The Edge Of The In Between') built on Dec 1 2013 17:55:00
Библиотека кодирования : libebml v1.3.0 + libmatroska v1.4.1

Видео
Идентификатор : 1
Формат : AVC
Формат/Информация : Advanced Video Codec
Профиль формата : High@L4.1
Параметр CABAC формата : Да
Параметр ReFrames формата : 4 кадра
Идентификатор кодека : V_MPEG4/ISO/AVC
Продолжительность : 1 ч. 6 м.
Битрейт : 2664 Кбит/сек
Ширина : 770 пикселей
Высота : 576 пикселей
Соотношение сторон : 4:3
Частота кадров : 23,976 кадра/сек
Цветовое пространство : YUV
Субдискретизация насыщенности : 4:2:0
Битовая глубина : 8 бит
Тип развёртки : Прогрессивная
Бит/(Пиксели*Кадры) : 0.251
Размер потока : 1,21 Гбайт (84%)
Заголовок : Кин-дза-дза! (1986) [2 серия] BDRip-AVC | HQCLUB
Библиотека кодирования : x264 core 138 r2358 9e941d1
Настройки программы : cabac=1 / ref=4 / deblock=1:-3:-2 / analyse=0x3:0x113 / me=umh / subme=11 / psy=1 / psy_rd=1.00:0.00 / mixed_ref=1 / me_range=48 / chroma_me=1 / trellis=2 / 8x8dct=1 / cqm=0 / deadzone=21,11 / fast_pskip=0 / chroma_qp_offset=-4 / threads=12 / lookahead_threads=2 / sliced_threads=0 / nr=0 / decimate=1 / interlaced=0 / bluray_compat=0 / constrained_intra=0 / bframes=9 / b_pyramid=2 / b_adapt=2 / b_bias=0 / direct=3 / weightb=1 / open_gop=0 / weightp=2 / keyint=250 / keyint_min=25 / scenecut=40 / intra_refresh=0 / rc_lookahead=40 / rc=2pass / mbtree=0 / bitrate=2664 / ratetol=1.0 / qcomp=0.60 / qpmin=0 / qpmax=69 / qpstep=4 / cplxblur=20.0 / qblur=0.5 / vbv_maxrate=62500 / vbv_bufsize=50000 / nal_hrd=none / ip_ratio=1.40 / pb_ratio=1.30 / aq=1:0.70
Язык : Russian
Default : Да
Forced : Нет

Аудио
Идентификатор : 2
Формат : AC-3
Формат/Информация : Audio Coding 3
Расширение режима : CM (complete main)
Идентификатор кодека : A_AC3
Продолжительность : 1 ч. 6 м.
Вид битрейта : Постоянный
Битрейт : 448 Кбит/сек
Каналы : 6 каналов
Расположение каналов : Front: L C R, Side: L R, LFE
Частота : 48,0 КГц
Битовая глубина : 16 бит
Метод сжатия : С потерями
Размер потока : 213 Мбайт (14%)
Заголовок : Оригинальная звуковая дорожка
Язык : Russian
Default : Да
Forced : Нет

Меню
00:07:32.041 : en:00:07:32.041
00:14:00.682 : en:00:14:00.682
00:23:36.487 : en:00:23:36.487
00:28:31.344 : en:00:28:31.344
00:32:12.427 : en:00:32:12.427
00:39:44.816 : en:00:39:44.816
00:43:54.890 : en:00:43:54.890
00:54:03.181 : en:00:54:03.181
00:59:57.874 : en:00:59:57.874
[/HTML]


Ссылки для скачивания:

http//bt.hqclub.net/files/ok.png Торрент: Кин-дза-дза! (1986) BDRip-AVC

Лучшая онлайн игра!


Публикация материалов сайта на сторонних ресурсах возможна только в неизменном виде.


Обсудить релиз на форуме

Вас также может заинтересовать:


  • 3
 (Голосов: 4)


Распечатать новость на принтере Фантастика, Драма, Комедия, Отечественный
Обновлено: 6.04.2014 - 11:32

КОММЕНТАРИИ

 №1. ru4lan

Статус: Кинокритик | Новостей: 0 | Комментариев: 2736
ru4lan режисерку в студию!
~~~

6.04.2014 - 23:51   цитировать