Вас Приветствует Релиз-группа HQCLUB


Помощь ресурсу, очень ВАЖНО!!!



.


WELCOME
Добро пожаловать в наше интернет - сообщество!

Всех нас объединяет одна страсть - страсть к высококачественному кино. А это наш сайт. Ежедневно здесь мы публикуем десятки качественных, свежих, а порой и эксклюзивных релизов, которые Вы можете скачать совершенно бесплатно и без каких-либо регистраций. Посему рекомендуем Вам добавить HQClub себе в закладки, а также подписаться на нашу ленту новостей, чтобы всегда быть в курсе всех событий. Ну а если Вы такой же синий фил, как и мы, то милости просим на наш форум. И в заключение, попробуйте зарегистрироваться, ведь не так это и сложно и займет всего лишь пару минут! Вот увидите, Вам у нас понравится и Вы вольетесь в наш дружный коллектив! Ну а пока - осматривайтесь = )
Мы рады Вам !





Кин-дза-дза! (1986) BDRip 720p

Оформил: Sky™ | 6 апреля 2014 - 11:38:21 | Обращений: 1461 {bookmarks_news}

http//lostpic.net/orig_images/4/b/b/4bbea38d224711c1f2e4520d7580ac.png

Информация о фильме
Оригинальное название: Кин-дза-дза!
Год выхода: 1986
Жанр: фантастика, драма, комедия
Режиссер: Георгий Данелия
В ролях: Станислав Любшин, Евгений Леонов, Юрий Яковлев, Леван Габриадзе, Ольга Машная, Ирина Шмелева, Лев Перфилов, Георгий Данелия, Александра Дорохина, Галина Данелия-Юркова
О фильме: Прораб Владимир Николаевич Машков и не подозревал, что обычный путь до универсама за хлебом и макаронами обернется межгалактическими путешествиями. А все эта встреча со студентом в кроличьей шапке с большой сумкой и с каким-то маленьким устройством — «машинкой перемещения», как он ее сам называл.
Короче, нажал на кнопку — и оказался вместе с молодым человеком в пустыне, и не в каких-нибудь Каракумах, а на планете-пустыне Плюк в тентуре, галактика Кин-дза-дза в спирали…

User Rating: 7.989/10 (26154 votes)

Релиз от - http//hqclub.net/images/hqclub.png
Автор рипа: Sky™

Выпущено: СССР
Продолжительность: 01:06:12 + 01:06:36 = 02:12:49
Субтитры: нет

Файл:
Формат: mkv
Качество: BDRip-AVC (источник: http//hdclub.org/dox/sitebutton_tracker.hdclub.com.ua1.gif / Blu-ray Disc / 1080p)
Видео #1: 988x720 (1.372:1), 23976 fps, X264@L4.1 ~5000 kbps avg, 0.293 bit/pixel
Видео #2: 932x720 (1.336:1), 23976 fps, X264@L4.1 ~5000 kbps avg, 0.301 bit/pixel
Аудио: 48 kHz, DTS, 3/2 (L,C,R,l,r) + LFE ch, ~1510.00 kbps avg
Размер: 3084.08 Mb + 3097.69 Mb
http//lostpic.net/images/1b899dddff9c84e7020a856612f5c646.png

http//lostpic.net/thumbs_images/7/a/2/7a2f3938e6821c445e70310c6b0518.png http//lostpic.net/thumbs_images/f/3/8/f383dcc33b9cdb820e07ff0fb14da4.png http//lostpic.net/thumbs_images/1/3/8/138ef413fbfc67e66fe54755606bd10e.png http//lostpic.net/thumbs_images/5/8/c/58c5dd8c979ff864bcc01208ee9ecf.png http//lostpic.net/thumbs_images/7/9/4/79446c003af2258aa3669407396f9e.png http//lostpic.net/thumbs_images/8/d/2/8d2f93fdef0158bfc250af4b784e7ec0.png http//lostpic.net/thumbs_images/b/f/f/bff53f21e223be37197c8c7f4cecaac5.png http//lostpic.net/thumbs_images/9/c/a/9cadbdea00ebe230bac4734bf279c3e6.png http//lostpic.net/thumbs_images/0/9/3/093b7267253176121d681a30cb99f80f.png http//lostpic.net/thumbs_images/2/4/b/24b9611965bdbd0db65c19ce4684f931.png

MediaINFO Видео #1
[HTML]Полное имя : Kin.dza.dza!1986.PART1.BDRip.720p.X264.AC3.-HQCLUB.mkv
Формат : Matroska
Версия формата : Version 4 / Version 2
Размер файла : 3,01 Гбайт
Продолжительность : 1 ч. 6 м.
Общий поток : 6510 Кбит/сек
Дата кодирования : UTC 2014-04-06 06:35:46
Программа кодирования : mkvmerge v6.6.0 ('The Edge Of The In Between') built on Dec 1 2013 17:55:00
Библиотека кодирования : libebml v1.3.0 + libmatroska v1.4.1

Видео
Идентификатор : 1
Формат : AVC
Формат/Информация : Advanced Video Codec
Профиль формата : High@L4.1
Параметр CABAC формата : Да
Параметр ReFrames формата : 4 кадра
Идентификатор кодека : V_MPEG4/ISO/AVC
Продолжительность : 1 ч. 6 м.
Битрейт : 5000 Кбит/сек
Ширина : 988 пикселей
Высота : 720 пикселей
Соотношение сторон : 1,372
Частота кадров : 23,976 кадра/сек
Цветовое пространство : YUV
Субдискретизация насыщенности : 4:2:0
Битовая глубина : 8 бит
Тип развёртки : Прогрессивная
Бит/(Пиксели*Кадры) : 0.293
Размер потока : 2,25 Гбайт (75%)
Заголовок : Кин-дза-дза! (1986) [1 серия] BDRip 720p | HQCLUB
Библиотека кодирования : x264 core 138 r2358 9e941d1
Настройки программы : cabac=1 / ref=4 / deblock=1:-3:-2 / analyse=0x3:0x113 / me=umh / subme=11 / psy=1 / psy_rd=1.00:0.00 / mixed_ref=1 / me_range=48 / chroma_me=1 / trellis=2 / 8x8dct=1 / cqm=0 / deadzone=21,11 / fast_pskip=0 / chroma_qp_offset=-4 / threads=12 / lookahead_threads=2 / sliced_threads=0 / nr=0 / decimate=1 / interlaced=0 / bluray_compat=0 / constrained_intra=0 / bframes=9 / b_pyramid=2 / b_adapt=2 / b_bias=0 / direct=3 / weightb=1 / open_gop=0 / weightp=2 / keyint=250 / keyint_min=25 / scenecut=40 / intra_refresh=0 / rc_lookahead=40 / rc=2pass / mbtree=0 / bitrate=5000 / ratetol=1.0 / qcomp=0.60 / qpmin=0 / qpmax=69 / qpstep=4 / cplxblur=20.0 / qblur=0.5 / vbv_maxrate=62500 / vbv_bufsize=50000 / nal_hrd=none / ip_ratio=1.40 / pb_ratio=1.30 / aq=1:0.70
Язык : Russian
Default : Да
Forced : Нет

Аудио
Идентификатор : 2
Формат : DTS
Формат/Информация : Digital Theater Systems
Идентификатор кодека : A_DTS
Продолжительность : 1 ч. 6 м.
Вид битрейта : Постоянный
Битрейт : 1510 Кбит/сек
Каналы : 6 каналов
Расположение каналов : Front: L C R, Side: L R, LFE
Частота : 48,0 КГц
Битовая глубина : 24 бит
Метод сжатия : С потерями
Размер потока : 715 Мбайт (23%)
Заголовок : Оригинальная звуковая дорожка
Язык : Russian
Default : Да
Forced : Нет

Меню
00:00:00.000 : en:00:00:00.000
00:08:32.512 : en:00:08:32.512
00:16:33.284 : en:00:16:33.284
00:20:35.901 : en:00:20:35.901
00:25:14.138 : en:00:25:14.138
00:33:52.030 : en:00:33:52.030
00:42:38.097 : en:00:42:38.097
00:48:46.006 : en:00:48:46.006
00:54:04.992 : en:00:54:04.992
01:03:32.225 : en:01:03:32.225
[/HTML]

MediaINFO Видео #2
[HTML]Полное имя : Kin.dza.dza!1986.PART2.BDRip.720p.X264.AC3.-HQCLUB.mkv
Формат : Matroska
Версия формата : Version 4 / Version 2
Размер файла : 3,03 Гбайт
Продолжительность : 1 ч. 6 м.
Общий поток : 6502 Кбит/сек
Дата кодирования : UTC 2014-04-06 06:57:53
Программа кодирования : mkvmerge v6.6.0 ('The Edge Of The In Between') built on Dec 1 2013 17:55:00
Библиотека кодирования : libebml v1.3.0 + libmatroska v1.4.1

Видео
Идентификатор : 1
Формат : AVC
Формат/Информация : Advanced Video Codec
Профиль формата : High@L4.1
Параметр CABAC формата : Да
Параметр ReFrames формата : 4 кадра
Идентификатор кодека : V_MPEG4/ISO/AVC
Продолжительность : 1 ч. 6 м.
Битрейт : 5000 Кбит/сек
Ширина : 962 пикселя
Высота : 720 пикселей
Соотношение сторон : 4:3
Частота кадров : 23,976 кадра/сек
Цветовое пространство : YUV
Субдискретизация насыщенности : 4:2:0
Битовая глубина : 8 бит
Тип развёртки : Прогрессивная
Бит/(Пиксели*Кадры) : 0.301
Размер потока : 2,26 Гбайт (75%)
Заголовок : Кин-дза-дза! (1986) [2 серия] BDRip 720p | HQCLUB
Библиотека кодирования : x264 core 138 r2358 9e941d1
Настройки программы : cabac=1 / ref=4 / deblock=1:-3:-2 / analyse=0x3:0x113 / me=umh / subme=11 / psy=1 / psy_rd=1.00:0.00 / mixed_ref=1 / me_range=48 / chroma_me=1 / trellis=2 / 8x8dct=1 / cqm=0 / deadzone=21,11 / fast_pskip=0 / chroma_qp_offset=-4 / threads=12 / lookahead_threads=2 / sliced_threads=0 / nr=0 / decimate=1 / interlaced=0 / bluray_compat=0 / constrained_intra=0 / bframes=9 / b_pyramid=2 / b_adapt=2 / b_bias=0 / direct=3 / weightb=1 / open_gop=0 / weightp=2 / keyint=250 / keyint_min=25 / scenecut=40 / intra_refresh=0 / rc_lookahead=40 / rc=2pass / mbtree=0 / bitrate=5000 / ratetol=1.0 / qcomp=0.60 / qpmin=0 / qpmax=69 / qpstep=4 / cplxblur=20.0 / qblur=0.5 / vbv_maxrate=62500 / vbv_bufsize=50000 / nal_hrd=none / ip_ratio=1.40 / pb_ratio=1.30 / aq=1:0.70
Язык : Russian
Default : Да
Forced : Нет

Аудио
Идентификатор : 2
Формат : DTS
Формат/Информация : Digital Theater Systems
Идентификатор кодека : A_DTS
Продолжительность : 1 ч. 6 м.
Вид битрейта : Постоянный
Битрейт : 1510 Кбит/сек
Каналы : 6 каналов
Расположение каналов : Front: L C R, Side: L R, LFE
Частота : 48,0 КГц
Битовая глубина : 24 бит
Метод сжатия : С потерями
Размер потока : 719 Мбайт (23%)
Заголовок : Оригинальная звуковая дорожка
Язык : Russian
Default : Да
Forced : Нет

Меню
00:07:32.041 : en:00:07:32.041
00:14:00.682 : en:00:14:00.682
00:23:36.487 : en:00:23:36.487
00:28:31.344 : en:00:28:31.344
00:32:12.427 : en:00:32:12.427
00:39:44.816 : en:00:39:44.816
00:43:54.890 : en:00:43:54.890
00:54:03.181 : en:00:54:03.181
00:59:57.874 : en:00:59:57.874
[/HTML]


Ссылки для скачивания:

http//bt.hqclub.net/files/ok.png Торрент: Кин-дза-дза! (1986) BDRip 720p

Лучшая онлайн игра!


Публикация материалов сайта на сторонних ресурсах возможна только в неизменном виде.


Обсудить релиз на форуме

Вас также может заинтересовать:


  • 3
 (Голосов: 4)


Распечатать новость на принтере Фантастика, Драма, Комедия, Отечественный
Обновлено: 6.04.2014 - 11:43