Вас Приветствует Релиз-группа HQCLUB


Помощь ресурсу, очень ВАЖНО!!!



.


WELCOME
Добро пожаловать в наше интернет - сообщество!

Всех нас объединяет одна страсть - страсть к высококачественному кино. А это наш сайт. Ежедневно здесь мы публикуем десятки качественных, свежих, а порой и эксклюзивных релизов, которые Вы можете скачать совершенно бесплатно и без каких-либо регистраций. Посему рекомендуем Вам добавить HQClub себе в закладки, а также подписаться на нашу ленту новостей, чтобы всегда быть в курсе всех событий. Ну а если Вы такой же синий фил, как и мы, то милости просим на наш форум. И в заключение, попробуйте зарегистрироваться, ведь не так это и сложно и займет всего лишь пару минут! Вот увидите, Вам у нас понравится и Вы вольетесь в наш дружный коллектив! Ну а пока - осматривайтесь = )
Мы рады Вам !





Бойфренд из будущего / About Time (2013) BDRip-AVC

Оформил: MOSFET | 6 января 2014 - 18:18:50 | Комментариев: 5 | Обращений: 1813 {bookmarks_news}

http//lostpic.net/orig_images/6/1/8/61846fcaa632536df9b7fbd92ff3b1c1.png

Информация о фильме:
Название: Бойфренд из будущего
Оригинальное название: About Time
Год выхода: 2013
Жанр: фантастика, драма, комедия
Режиссер: Ричард Кёртис
В ролях: Донал Глисон, Рэйчел МакАдамс, Билл Найи, Том Холландер, Марго Робби, Лидия Уилсон, Линдси Дункан, Ричард Кордери, Джош МакГуайр, Уилл Меррик

О фильме:
Тиму повезло – он молодой, симпатичный, многообещающий адвокат, а еще он… умеет перемещаться во времени. И чтобы очаровать девушку своей мечты, он готов повторять первое свидание вновь и вновь. Воистину, любовь с первого взгляда не всегда выходит с первого раза...

«A new funny film about love. With a bit of time travel»

User Rating: 8.075 / 10 (12 063 votes)
Imdb: 7.8 / 10 (33 172 votes)

Релиз от - http//hqclub.net/images/hqclub.png
Автор рипа: MOSFET

Выпущено: Австралия, США
Продолжительность: 02:03:22
Перевод: Профессиональный (полное дублирование) + Оригинальная звуковая дорожка
Субтитры: Русские (форсированные, полные) BD CEE, украинские (полные) BD CEE, английские (обычные, SDH, SDH-COLORED) (*.srt, отключаемые)

Сохранены оригинальные чаптеры как на Blu-ray.

Файл:
Формат: MKV
Качество: BDRip-AVC (источник: HDClub / Blu-ray Disc CEE / 1080p)
Видео: 1056x440 (2,40:1), 23.976 fps, x264@L4.1, 2pass, ~1633 kbps avg, 0.15 bit/pixel
Аудио #1: 48 kHz, AC3, 3/2 (L,C,R,l,r) + LFE ch, ~448.00 kbps avg (RUS)
Аудио #2: 48 kHz, AC3, 3/2 (L,C,R,l,r) + LFE ch, ~448.00 kbps avg (ENG)
Размер: 2233,74 MB (1/2 DVD)
Скачать: Сэмпл

http//lostpic.net/thumbs_images/1/c/a/1ca0e205bc0546a69f20ebac1114d3.png http//lostpic.net/thumbs_images/0/7/4/074fa44615b6b6c55f9ef89a4ab6f89f.png http//lostpic.net/thumbs_images/0/d/e/0dea231ca437a86375b000bb6a4fa4.png http//lostpic.net/thumbs_images/d/9/f/d9f0d045dfa06c8014014cda71a1.png http//lostpic.net/thumbs_images/a/4/8/a75cd2b821cbe5b09c1d9f700216ac.png http//lostpic.net/thumbs_images/b/2/4/b240e13aa5c71acca59c22ba2cc4371e.png

MediaINFO
Полное имя : Bojfrend.iz.buduschego.2013.DUAL.BDRip-AVC.x264.AC3.-HQCLUB.mkv
Формат : Matroska
Версия формата : Version 4 / Version 2
Размер файла : 2,18 Гбайт
Продолжительность : 2 ч. 3 м.
Общий поток : 2531 Кбит/сек
Дата кодирования : UTC 2014-01-06 13:46:16
Программа кодирования : mkvmerge v6.6.0 ('The Edge Of The In Between') built on Dec 1 2013 17:55:00
Библиотека кодирования : libebml v1.3.0 + libmatroska v1.4.1

Видео
Идентификатор : 1
Формат : AVC
Формат/Информация : Advanced Video Codec
Профиль формата : High@L4.1
Параметр CABAC формата : Да
Параметр ReFrames формата : 10 кадров
Идентификатор кодека : V_MPEG4/ISO/AVC
Продолжительность : 2 ч. 3 м.
Битрейт : 1633 Кбит/сек
Ширина : 1056 пикселей
Высота : 440 пикселей
Соотношение сторон : 2,40:1
Режим частоты кадров : Постоянный
Частота кадров : 23,976 кадра/сек
Цветовое пространство : YUV
Субдискретизация насыщенности : 4:2:0
Битовая глубина : 8 бит
Тип развёртки : Прогрессивная
Бит/(Пиксели*Кадры) : 0.147
Размер потока : 1,37 Гбайт (63%)
Заголовок : Бойфренд из будущего / About Time (2013) BDRip-AVC by MOSFET | HQCLUB.NET
Библиотека кодирования : x264 core 138 r2358 9e941d1
Настройки программы : cabac=1 / ref=10 / deblock=1:-2:-1 / analyse=0x3:0x113 / me=esa / subme=10 / psy=1 / psy_rd=1.00:0.00 / mixed_ref=1 / me_range=64 / chroma_me=1 / trellis=2 / 8x8dct=1 / cqm=0 / deadzone=21,11 / fast_pskip=0 / chroma_qp_offset=-2 / threads=12 / lookahead_threads=3 / sliced_threads=0 / nr=0 / decimate=1 / interlaced=0 / bluray_compat=0 / constrained_intra=0 / bframes=13 / b_pyramid=2 / b_adapt=2 / b_bias=0 / direct=3 / weightb=1 / open_gop=0 / weightp=2 / keyint=240 / keyint_min=23 / scenecut=40 / intra_refresh=0 / rc_lookahead=50 / rc=2pass / mbtree=1 / bitrate=1633 / ratetol=1.0 / qcomp=0.70 / qpmin=0 / qpmax=69 / qpstep=4 / cplxblur=20.0 / qblur=0.5 / vbv_maxrate=50000 / vbv_bufsize=62500 / nal_hrd=none / ip_ratio=1.40 / aq=1:0.80
Язык : English
Default : Да
Forced : Нет

Аудио #1
Идентификатор : 2
Формат : AC-3
Формат/Информация : Audio Coding 3
Расширение режима : CM (complete main)
Параметр Endianness формата : Big
Идентификатор кодека : A_AC3
Продолжительность : 2 ч. 3 м.
Вид битрейта : Постоянный
Битрейт : 448 Кбит/сек
Каналы : 6 каналов
Расположение каналов : Front: L C R, Side: L R, LFE
Частота : 48,0 КГц
Битовая глубина : 16 бит
Метод сжатия : С потерями
Размер потока : 395 Мбайт (18%)
Заголовок : Профессиональный (полное дублирование) Blu-ray CEE
Язык : Russian
Default : Да
Forced : Нет

Аудио #2
Идентификатор : 3
Формат : AC-3
Формат/Информация : Audio Coding 3
Расширение режима : CM (complete main)
Параметр Endianness формата : Big
Идентификатор кодека : A_AC3
Продолжительность : 2 ч. 3 м.
Вид битрейта : Постоянный
Битрейт : 448 Кбит/сек
Каналы : 6 каналов
Расположение каналов : Front: L C R, Side: L R, LFE
Частота : 48,0 КГц
Битовая глубина : 16 бит
Метод сжатия : С потерями
Размер потока : 395 Мбайт (18%)
Заголовок : Оригинальная звуковая дорожка
Язык : English
Default : Нет
Forced : Нет

Текст #1
Идентификатор : 4
Формат : UTF-8
Идентификатор кодека : S_TEXT/UTF8
Идентификатор кодека/Информация : UTF-8 Plain Text
Заголовок : Русские (форсированные) Blu-ray CEE
Язык : Russian
Default : Да
Forced : Нет

Текст #2
Идентификатор : 5
Формат : UTF-8
Идентификатор кодека : S_TEXT/UTF8
Идентификатор кодека/Информация : UTF-8 Plain Text
Заголовок : Русские (полные) Blu-ray CEE
Язык : Russian
Default : Нет
Forced : Нет

Текст #3
Идентификатор : 6
Формат : UTF-8
Идентификатор кодека : S_TEXT/UTF8
Идентификатор кодека/Информация : UTF-8 Plain Text
Заголовок : Украинские (полные) Blu-ray CEE
Язык : Ukrainian
Default : Нет
Forced : Нет

Текст #4
Идентификатор : 7
Формат : UTF-8
Идентификатор кодека : S_TEXT/UTF8
Идентификатор кодека/Информация : UTF-8 Plain Text
Заголовок : Английские (полные)
Язык : English
Default : Нет
Forced : Нет

Текст #5
Идентификатор : 8
Формат : UTF-8
Идентификатор кодека : S_TEXT/UTF8
Идентификатор кодека/Информация : UTF-8 Plain Text
Заголовок : Английские (полные, SDH)
Язык : English
Default : Нет
Forced : Нет

Текст #6
Идентификатор : 9
Формат : UTF-8
Идентификатор кодека : S_TEXT/UTF8
Идентификатор кодека/Информация : UTF-8 Plain Text
Заголовок : Английские (полные, SDH-COLORED)
Язык : English
Default : Нет
Forced : Нет

Меню
00:00:00.000 : en:Chapter 1
00:03:58.071 : en:Chapter 2
00:10:11.903 : en:Chapter 3
00:17:26.295 : en:Chapter 4
00:20:38.112 : en:Chapter 5
00:26:04.396 : en:Chapter 6
00:32:44.004 : en:Chapter 7
00:40:26.591 : en:Chapter 8
00:45:17.965 : en:Chapter 9
00:49:43.439 : en:Chapter 10
00:54:50.871 : en:Chapter 11
01:03:44.529 : en:Chapter 12
01:09:29.374 : en:Chapter 13
01:16:28.000 : en:Chapter 14
01:21:35.724 : en:Chapter 15
01:27:24.448 : en:Chapter 16
01:34:52.812 : en:Chapter 17
01:43:48.848 : en:Chapter 18
01:49:32.316 : en:Chapter 19
01:57:03.141 : en:Chapter 20

x264 log
x264 [info]: frame I:1453 Avg QP:13.90 size: 82084
x264 [info]: frame P:36554 Avg QP:17.23 size: 19810
x264 [info]: frame B:139465 Avg QP:20.46 size: 4784

x264 [info]: consecutive B-frames: 2.3% 2.1% 8.8% 14.8% 17.3% 32.4% 7.3% 4.4% 3.5% 1.9% 1.8% 0.9% 1.3% 1.3%

x264 [info]: ref P L0: 49.1% 9.5% 16.1% 7.0% 4.9% 4.2% 3.2% 2.1% 1.7% 2.0% 0.2% 0.0%
x264 [info]: ref B L0: 70.1% 12.9% 6.8% 3.2% 2.5% 1.8% 1.7% 0.7% 0.3%
x264 [info]: ref B L1: 90.0% 10.0%


Ссылки для скачивания:

http//bt.hqclub.net/files/ok.png Торрент: Бойфренд из будущего / About Time (2013) BDRip-AVC

Лучшая онлайн игра!


Публикация материалов сайта на сторонних ресурсах возможна только в неизменном виде.


Обсудить релиз на форуме

Вас также может заинтересовать:


  • 5
 (Голосов: 2)


Распечатать новость на принтере Фантастика, Драма, Комедия
Обновлено: 8.01.2014 - 15:54

КОММЕНТАРИИ

 №1. gubiniliya

Статус: Любитель | Новостей: 0 | Комментариев: 107
Спасибо большое, долгожданная новиночка!
У вас продолжительность больше на 20 мин =) даже не буду ждать просто BDRip забираю AVC
~~~

6.01.2014 - 19:04   цитировать  

 №2. MAHABAP

Статус: Новичок | Новостей: 0 | Комментариев: 32
MAHABAP Фильм шикарен! Спасибо за проделанную работу.
~~~

6.01.2014 - 19:31   цитировать  

 №3. ru4lan

Статус: Кинокритик | Новостей: 0 | Комментариев: 2736
ru4lan спасибо! беру!
~~~

6.01.2014 - 20:42   цитировать  

 №4. ser-a-la

Статус: Новичок | Новостей: 0 | Комментариев: 1
по мне так полная лажа - еле пол фильма просмотрел -и удалил...
~~~

8.01.2014 - 23:54   цитировать  

 №5. ru4lan

Статус: Кинокритик | Новостей: 0 | Комментариев: 2736
ru4lan оч понравмлся фильм моей семье
~~~

18.04.2014 - 01:55   цитировать