Вас Приветствует Релиз-группа HQCLUB


Помощь ресурсу, очень ВАЖНО!!!



.


WELCOME
Добро пожаловать в наше интернет - сообщество!

Всех нас объединяет одна страсть - страсть к высококачественному кино. А это наш сайт. Ежедневно здесь мы публикуем десятки качественных, свежих, а порой и эксклюзивных релизов, которые Вы можете скачать совершенно бесплатно и без каких-либо регистраций. Посему рекомендуем Вам добавить HQClub себе в закладки, а также подписаться на нашу ленту новостей, чтобы всегда быть в курсе всех событий. Ну а если Вы такой же синий фил, как и мы, то милости просим на наш форум. И в заключение, попробуйте зарегистрироваться, ведь не так это и сложно и займет всего лишь пару минут! Вот увидите, Вам у нас понравится и Вы вольетесь в наш дружный коллектив! Ну а пока - осматривайтесь = )
Мы рады Вам !



вакансии эскорт агентство


Посвященный / The Giver [US] (2014) BDRip-AVC

Оформил: Elheym | 22 января 2015 - 20:10:26 | Обращений: 993 {bookmarks_news}

http//lostpic.net/orig_images/b/2/b/b2bb2f1014018a8d9a2294f4fc537d83.jpg

Информация о фильме:
Название: Посвященный
Оригинальное название: The Giver
Год выхода: 2014
Жанр: фантастика, драма
Режиссер: Филлип Нойс / Phillip Noyce
В ролях: Брентон Туэйтс, Мэрил Стрип, Джефф Бриджес, Александр Скарсгард, Кэти Холмс, Тейлор Свифт, Камерон Монахэн, Одейя Раш, Эмма Трамбле, Катарина Дэмм

О фильме: Юный Джонас живет в идеальном, максимально цивилизованном обществе будущего, где больше нет войн, боли, страданий, радости, воспоминаний. Для каждого члена здесь определен идеальный порядок существования, и теперь никому не приходится выбирать шаг, мысль, цвет — все вокруг однозначно серое… По решению Совета общества Джонас назначается Хранителем памяти, которую он должен перенять у Учителя по имени Дающий. Юноше открывается правда о настоящем мире, но чтобы освободить свой мир, он должен бросить ему вызов…

«Он избран вернуть Судьбу»



http//rating.kinopoisk.ru/88078.gif http//tracker.0day.kiev.ua/imdb/imdb_tt0435651.gif

Релиз от - http//hqclub.net/images/hqclub.png
Автор рипа: Elheym

Выпущено: США, As Is Productions, The Weinstein Company LLC, Tonik Productions, Walden Media
Продолжительность: 1:37:17
Перевод : Профессиональный (полное дублирование) BD RUS
Оригинальная аудиодорожка: английская
Субтитры: английские (полные, полные SDH)
Главы: присутствуют, сохранены оригинальные

Файл:
Формат: MKV
Качество: BDRip-AVC (источник: http//lostpic.net/images/20a38122bcc5994b3cdae6e4b4b0.png / Blu-ray [USA Transfer] Disc / 1080p)
Видео: 1140x476 (2.40:1), 23.976 fps, MPEG-4 AVC, ~2207 kbps avg, 0.170 bit/pixel
Аудио #1: 48 kHz, AC3 Dolby Digital, 3/2 (L,C,R,l,r) + LFE ch, ~448 kbps avg (DUB)
Аудио #2: 48 kHz, AC3 Dolby Digital, 3/2 (L,C,R,l,r) + LFE ch, ~448 kbps avg (ENG)
Размер: 2.15 GB
Сэмпл: скачать

http//lostpic.net/thumbs_images/d/f/5/df5e27aa3b8af9741bd4c97ab1e8fc.png http//lostpic.net/thumbs_images/8/4/b/84bbb65e1d91715067c3b8c2384213ea.png http//lostpic.net/thumbs_images/7/a/5/7a530a228b3fc9f30b6c43e7b29d587d.png http//lostpic.net/thumbs_images/2/c/0/2c03725fe9eb3ee3a4fe7e630f16784a.png http//lostpic.net/thumbs_images/5/4/d/54dc73c5da008e43341b27f370af9e9f.png http//lostpic.net/thumbs_images/3/7/c/37cab8f930acfef220e58d8fe2e71874.png

"MediaInfo"

Уникальный идентификатор : 187060887663315721177009359101212661469 (0x8CBA9DD2C6C6989096A72059FEF696DD)
Полное имя : The.Giver.US.2014.DUAL.BDRip-AVC.x264.AC3.-HQCLUB.mkv
Формат : Matroska
Версия формата : Version 2
Размер файла : 2,15 Гбайт
Продолжительность : 1 ч. 37 м.
Общий поток : 3166 Кбит/сек
Дата кодирования : UTC 2015-01-22 16:33:03
Программа кодирования : mkvmerge v5.2.0 ('I can't explain') built on Dec 18 2011 18:12:03
Библиотека кодирования : libebml v1.2.3 + libmatroska v1.3.0

Видео
Идентификатор : 1
Формат : AVC
Формат/Информация : Advanced Video Codec
Профиль формата : High@L4.1
Параметр CABAC формата : Да
Параметр ReFrames формата : 11 кадров
Идентификатор кодека : V_MPEG4/ISO/AVC
Продолжительность : 1 ч. 37 м.
Битрейт : 2207 Кбит/сек
Ширина : 1140 пикселей
Высота : 476 пикселей
Соотношение сторон : 2,40:1
Режим частоты кадров : Постоянный
Частота кадров : 23,976 кадра/сек
Цветовое пространство : YUV
Субдискретизация насыщенности : 4:2:0
Битовая глубина : 8 бит
Тип развёртки : Прогрессивная
Бит/(Пиксели*Кадры) : 0.170
Размер потока : 1,50 Гбайт (70%)
Заголовок : Посвященный / The Giver [US] (2014) BDRip-AVC by HQCLUB [Elheym]
Библиотека кодирования : x264 core 144 r2525kMod 40bb568
Настройки программы : cabac=1 / ref=11 / deblock=1:-3:-2 / analyse=0x3:0x133 / me=umh / subme=11 / psy=1 / fade_compensate=0.00 / psy_rd=0.90:0.00 / mixed_ref=1 / me_range=32 / chroma_me=1 / trellis=2 / 8x8dct=1 / cqm=0 / deadzone=21,11 / fast_pskip=0 / chroma_qp_offset=-4 / threads=6 / lookahead_threads=1 / sliced_threads=0 / nr=0 / decimate=1 / interlaced=0 / bluray_compat=0 / constrained_intra=0 / fgo=0 / bframes=14 / b_pyramid=2 / b_adapt=2 / b_bias=0 / direct=3 / weightb=1 / open_gop=0 / weightp=2 / keyint=230 / keyint_min=23 / scenecut=40 / intra_refresh=0 / rc_lookahead=40 / rc=crf / mbtree=0 / crf=17.8500 / qcomp=0.70 / qpmin=0 / qpmax=69 / qpstep=4 / vbv_maxrate=50000 / vbv_bufsize=62500 / crf_max=0.0 / nal_hrd=none / filler=0 / ip_ratio=1.40 / pb_ratio=1.30 / aq=3:0.90 / zones=126728,138070,b=0.3
Язык : English
Default : Да
Forced : Нет

Аудио #1
Идентификатор : 2
Формат : AC-3
Формат/Информация : Audio Coding 3
Расширение режима : CM (complete main)
Параметр Endianness формата : Big
Идентификатор кодека : A_AC3
Продолжительность : 1 ч. 37 м.
Вид битрейта : Постоянный
Битрейт : 448 Кбит/сек
Каналы : 6 каналов
Расположение каналов : Front: L C R, Side: L R, LFE
Частота : 48,0 КГц
Битовая глубина : 16 бит
Метод сжатия : С потерями
Размер потока : 312 Мбайт (14%)
Заголовок : АС3 5.1 @ 448 kbps - Dub, BD RUS
Язык : Russian
Default : Нет
Forced : Нет

Аудио #2
Идентификатор : 3
Формат : AC-3
Формат/Информация : Audio Coding 3
Расширение режима : CM (complete main)
Параметр Endianness формата : Big
Идентификатор кодека : A_AC3
Продолжительность : 1 ч. 37 м.
Вид битрейта : Постоянный
Битрейт : 448 Кбит/сек
Каналы : 6 каналов
Расположение каналов : Front: L C R, Side: L R, LFE
Частота : 48,0 КГц
Битовая глубина : 16 бит
Метод сжатия : С потерями
Размер потока : 312 Мбайт (14%)
Заголовок : АС3 5.1 @ 448 kbps - Original
Язык : English
Default : Нет
Forced : Нет

Текст #1
Идентификатор : 4
Формат : UTF-8
Идентификатор кодека : S_TEXT/UTF8
Идентификатор кодека/Информация : UTF-8 Plain Text
Заголовок : Full
Язык : English
Default : Нет
Forced : Нет

Текст #2
Идентификатор : 5
Формат : UTF-8
Идентификатор кодека : S_TEXT/UTF8
Идентификатор кодека/Информация : UTF-8 Plain Text
Заголовок : Full SDH
Язык : English
Default : Нет
Forced : Нет

Меню
00:00:00.000 : :Chapter 01
00:05:51.225 : :Chapter 02
00:12:35.504 : :Chapter 03
00:20:55.295 : :Chapter 04
00:26:11.903 : :Chapter 05
00:30:35.250 : :Chapter 06
00:36:26.767 : :Chapter 07
00:41:24.148 : :Chapter 08
00:48:36.538 : :Chapter 09
00:56:21.711 : :Chapter 10
01:01:04.452 : :Chapter 11
01:04:58.644 : :Chapter 12
01:09:59.695 : :Chapter 13
01:17:07.414 : :Chapter 14
01:23:15.865 : :Chapter 15
01:28:02.318 : :Chapter 16
01:37:17.623 : :Chapter 17

"x264 log"

x264 [info]: frame I:1404 Avg QP:14.92 size: 64937
x264 [info]: frame P:28664 Avg QP:17.56 size: 25788
x264 [info]: frame B:109901 Avg QP:19.07 size: 7503

x264 [info]: consecutive B-frames: 2.0% 3.5% 4.8% 21.4% 14.9% 31.1% 6.3% 6.8% 2.6% 1.3% 1.1% 1.2% 0.9% 0.8% 1.2%

x264 [info]: ref P L0: 51.0% 10.1% 16.5% 6.3% 5.1% 3.4% 2.7% 1.5% 1.3% 1.1% 1.1% 0.1% 0.0%
x264 [info]: ref B L0: 76.2% 11.2% 5.1% 2.4% 1.7% 1.3% 1.0% 0.6% 0.3% 0.2%
x264 [info]: ref B L1: 92.8% 7.2%


Ссылки для скачивания:

http//bt.hqclub.net/files/ok.png Торрент: Посвященный / The Giver [US] (2014) BDRip-AVC

Лучшая онлайн игра!


Публикация материалов сайта на сторонних ресурсах возможна только в неизменном виде.


Обсудить релиз на форуме

Вас также может заинтересовать:


  • 0
 (Голосов: 0)


Распечатать новость на принтере Фантастика, Драма