Вас Приветствует Релиз-группа HQCLUB


Помощь ресурсу, очень ВАЖНО!!!



.


WELCOME
Добро пожаловать в наше интернет - сообщество!

Всех нас объединяет одна страсть - страсть к высококачественному кино. А это наш сайт. Ежедневно здесь мы публикуем десятки качественных, свежих, а порой и эксклюзивных релизов, которые Вы можете скачать совершенно бесплатно и без каких-либо регистраций. Посему рекомендуем Вам добавить HQClub себе в закладки, а также подписаться на нашу ленту новостей, чтобы всегда быть в курсе всех событий. Ну а если Вы такой же синий фил, как и мы, то милости просим на наш форум. И в заключение, попробуйте зарегистрироваться, ведь не так это и сложно и займет всего лишь пару минут! Вот увидите, Вам у нас понравится и Вы вольетесь в наш дружный коллектив! Ну а пока - осматривайтесь = )
Мы рады Вам !





Пекло / Sunshine (2007) BDRip-AVC

Оформил: KalliostroV | 7 мая 2010 - 04:02:46 | Обращений: 2502 {bookmarks_news}

http//www.img.hqclub.net/boxes/logo167566_box.jpg

Информация о фильме
Название: Пекло
Оригинальное название: Sunshine
Год выхода: 2007
Жанр: фантастика, триллер, приключения
Режиссер: Дэнни Бойл / Danny Boyle
В ролях: Крис Эванс, Киллиан Мерфи, Роуз Бирн, Мишель Йео, Клифф Кертис, Трой Гэрити, Марк Стронг, Хироюки Санада, Бенедикт Вонг

О фильме:
2057 год. Солнце погибает, и человечество встает перед лицом вымирания. Последняя надежда планеты Земля связана с «Икаром 2» — космическим кораблем, экипаж которого состоит из восьми мужчин и женщин во главе с капитаном Канедой. Их миссия — доставить ядерный заряд, с помощью которого предполагается повторно воспламенить гаснущее Солнце.
Во время своего путешествия, находясь далеко в космическом безмолвии, в отсутствии какого-либо радиоконтакта с Землей, экипаж слышит слабые позывные сигналы с космического корабля «Икар 1», который пропал, выполняя семь лет назад ту же самую миссию, что и «Икар 2». Ужасная катастрофа ввергает миссию в очень опасную и рискованную ситуацию, и скоро команда обнаруживает, что вынуждена бороться не только за свои собственные жизни и душевное равновесие, но и за будущее всех нас…

User Rating: 7.472/10 (7,714 votes)
Imdb: 7.3/10 (71,387 votes)

Релиз от - http//hqclub.net/images/hqclub.png
Автор рипа: chopper887

Выпущено: США, Великобритания
Продолжительность: 01:47:27
Перевод: Профессиональный (полное дублирование) + Авторский одноголосый Ю.Живова + Оригинальная звуковая дорожка
Субтитры: Русские, английские (srt*)

Файл:
Формат: mkv
Качество: BDRip-AVC (источник: Blu-ray Remux / 1080p)
Видео: 1280x544 (2.35:1), 23,976 fps, 2624 kbps avg
Аудио #1: 48 kHz, AC3 Dolby Digital, 3/2 (L,C,R,l,r) + LFE ch, ~384.00 kbps avg
Аудио #2: 48 kHz, AC3 Dolby Digital, 3/2 (L,C,R,l,r) + LFE ch, ~384.00 kbps avg
Аудио #3: 48 kHz, AC3 Dolby Digital, 3/2 (L,C,R,l,r) + LFE ch, ~384.00 kbps avg
Размер: 2971.69 Mb (2/3 DVD-R)
Скачать: Семпл

"MediaInfo"

General
Complete name : J:\Peklo.2007.BDRip-AVC- HQCLUB.mkv
Format : Matroska
File size : 2.89 GiB
Duration : 1h 47mn
Overall bit rate : 3 852 Kbps
Movie name : chopper887.by HQCLUB
Encoded date : UTC 2010-05-06 12:50:03
Writing application : mkvmerge v3.0.0 ('Hang up your Hang-Ups') built on Dec 12 2009 15:20:35
Writing library : libebml v0.7.9 + libmatroska v0.8.1

Video
ID : 1
Format : AVC
Format/Info : Advanced Video Codec
Format profile : High@L4.1
Format settings, CABAC : Yes
Format settings, ReFrames : 13 frames
Muxing mode : Container profile=Unknown@4.1
Codec ID : V_MPEG4/ISO/AVC
Duration : 1h 47mn
Bit rate : 2 624 Kbps
Nominal bit rate : 2 699 Kbps
Width : 1 280 pixels
Height : 544 pixels
Display aspect ratio : 2.35:1
Frame rate : 23.976 fps
Resolution : 8 bits
Colorimetry : 4:2:0
Scan type : Progressive
Bits/(Pixel*Frame) : 0.157
Stream size : 1.97 GiB (68%)
Writing library : x264 core 80 r1376M 3feaec2
Encoding settings : cabac=1 / ref=13 / deblock=1:-1:0 / analyse=0x3:0x133 / me=umh / subme=9 / psy=1 / psy_rd=1.0:0.1 / mixed_ref=1 / me_range=32 / chroma_me=1 / trellis=2 / 8x8dct=1 / cqm=0 / deadzone=21,11 / fast_pskip=0 / chroma_qp_offset=-3 / threads=3 / sliced_threads=0 / nr=0 / decimate=1 / mbaff=0 / constrained_intra=0 / bframes=11 / b_pyramid=2 / b_adapt=2 / b_bias=0 / direct=1 / wpredb=0 / wpredp=0 / keyint=250 / keyint_min=25 / scenecut=40 / rc_lookahead=90 / rc=2pass / mbtree=1 / bitrate=2699 / ratetol=1.0 / qcomp=0.70 / qpmin=10 / qpmax=51 / qpstep=4 / cplxblur=20.0 / qblur=0.5 / ip_ratio=1.40 / aq=1:0.90
Language : English

Audio #1
ID : 2
Format : AC-3
Format/Info : Audio Coding 3
Codec ID : A_AC3
Duration : 1h 47mn
Bit rate mode : Constant
Bit rate : 384 Kbps
Channel(s) : 6 channels
Channel positions : Front: L C R, Surround: L R, LFE
Sampling rate : 48.0 KHz
Stream size : 295 MiB (10%)
Title : Дубляж

Audio #2
ID : 3
Format : AC-3
Format/Info : Audio Coding 3
Codec ID : A_AC3
Duration : 1h 47mn
Bit rate mode : Constant
Bit rate : 384 Kbps
Channel(s) : 6 channels
Channel positions : Front: L C R, Surround: L R, LFE
Sampling rate : 48.0 KHz
Stream size : 295 MiB (10%)
Title : Живов

Audio #3
ID : 4
Format : AC-3
Format/Info : Audio Coding 3
Codec ID : A_AC3
Duration : 1h 47mn
Bit rate mode : Constant
Bit rate : 384 Kbps
Channel(s) : 6 channels
Channel positions : Front: L C R, Surround: L R, LFE
Sampling rate : 48.0 KHz
Stream size : 295 MiB (10%)
Title : Английский

Text #1
ID : 5
Format : UTF-8
Codec ID : S_TEXT/UTF8
Codec ID/Info : UTF-8 Plain Text
Title : Русские

Text #2
ID : 6
Format : UTF-8
Codec ID : S_TEXT/UTF8
Codec ID/Info : UTF-8 Plain Text
Title : Английские



http//i6.fastpic.ru/thumb/2010/0506/94/92b3423aaf111cac1d8ac52ca594.jpeg http//i6.fastpic.ru/thumb/2010/0506/72/bcdef3e7f4300fa2041f438a15b9b2.jpeg http//i6.fastpic.ru/thumb/2010/0506/56/b279e1fe2e5ac37c522fae31d0f70b56.jpeg http//i6.fastpic.ru/thumb/2010/0506/18/6e9d5379659c14f4aaae5b3b0774ba18.jpeg http//i6.fastpic.ru/thumb/2010/0506/15/ee206a1f997a70a5231be24b3a925b15.jpeg http//i6.fastpic.ru/thumb/2010/0506/3b/f73a709f6fb6cfff864e791375c8ed3b.jpeg http//i6.fastpic.ru/thumb/2010/0506/6f/2aec00bd3a9a97c7a9fe445f87cb6f.jpeg

Ссылки для скачивания:

http//s52.radikal.ru/i136/0912/4f/9271076c3e7b.png Торрент: Пекло / Sunshine (2007) BDRip-AVC

Лучшая онлайн игра!


Публикация материалов сайта на сторонних ресурсах возможна только в неизменном виде.


Обсудить релиз на форуме

Вас также может заинтересовать:


  • 5
 (Голосов: 10)


Распечатать новость на принтере Фантастика, Триллер, Приключения