Вас Приветствует Релиз-группа HQCLUB


Помощь ресурсу, очень ВАЖНО!!!



.


WELCOME
Добро пожаловать в наше интернет - сообщество!

Всех нас объединяет одна страсть - страсть к высококачественному кино. А это наш сайт. Ежедневно здесь мы публикуем десятки качественных, свежих, а порой и эксклюзивных релизов, которые Вы можете скачать совершенно бесплатно и без каких-либо регистраций. Посему рекомендуем Вам добавить HQClub себе в закладки, а также подписаться на нашу ленту новостей, чтобы всегда быть в курсе всех событий. Ну а если Вы такой же синий фил, как и мы, то милости просим на наш форум. И в заключение, попробуйте зарегистрироваться, ведь не так это и сложно и займет всего лишь пару минут! Вот увидите, Вам у нас понравится и Вы вольетесь в наш дружный коллектив! Ну а пока - осматривайтесь = )
Мы рады Вам !





Прометей / Prometheus (2012) BDRip-AVC

Оформил: Sky™ | 30 сентября 2012 - 09:38:18 | Комментариев: 7 | Обращений: 3734 {bookmarks_news}

http//lostpic.net/images/f3d74df8abdd788597d5687781eb8277.png

Информация о фильме:
Название: Прометей
Оригинальное название: Prometheus
Год выхода: 2012
Жанр: фантастика, триллер, приключения
Режиссер: Ридли Скотт
В ролях: Нуми Рапас, Майкл Фассбендер, Шарлиз Терон, Идрис Эльба, Гай Пирс, Логан Маршалл-Грин, Шон Харрис, Рейф Сполл, Иман Эллиотт, Бенедикт Вонг

О фильме: В поисках сакрального знания группа ученых отправляется в самые темные и неизведанные чертоги вселенной. Именно там, в отдаленных мирах, находясь на пределе своих умственных и физических возможностей, им предстоит вступить в безжалостную схватку за будущее всего человечества...

«Они искали колыбель человечества, но нашли его погибель»



http//www.kinopoisk.ru/rating/467099.gif

Релиз от - http//hqclub.net/images/hqclub.png
Автор рипа: Sky™

Выпущено: США, Великобритания
Продолжительность: 02:03:46
Перевод: Профессиональный (полное дублирование) BD EUR + Оригинальная звуковая дорожка
Субтитры: Русские (Е. Воронин), Английские, Украинские (*.srt, отключаемые)
Сохранены оригинальные чаптеры как на Blu-ray.

Файл:
Формат: mkv
Качество: BDRip-AVC (источник: http//lostpic.net/images/22eefe6b76ddac5300f588214ee6f381.gif / Blu-Ray Remux / 1080p)
Видео: 1024x426 (2.40:1), 23.976 fps, x264@L4.1 ~2454 kbps avg, 0.235 bit/pixel
Аудио #1: 48 kHz, AC3 Dolby Digital, 3/2 (L,C,R,l,r) + LFE ch, ~448 kbps avg (RUS) BD EUR
Аудио #2: 48 kHz, AC3 Dolby Digital, 3/2 (L,C,R,l,r) + LFE ch, ~448 kbps avg (ENG)
Размер: 2964.50 Mb
http//lostpic.net/images/1b899dddff9c84e7020a856612f5c646.png

http//lostpic.net/thumbs/83d64d16ab54e26c3b950f263faa92.png http//lostpic.net/thumbs/e6924b9f6e340a146b9b2aa50e4a9dd7.png http//lostpic.net/thumbs/46a813772bc25e6b906ca11b06593317.png http//lostpic.net/thumbs/9b0bf8313f38ea38ba45b61bc750a683.png http//lostpic.net/thumbs/28f1022326c01f8cad253310a714d98f.png http//lostpic.net/thumbs/2813a37ca3cb3d2936d7c8c92595.png
MediaINFO
[HTML]Полное имя : Prometej.2012.BDRip-AVC.x264.AC3.-HQCLUB.mkv
Формат : Matroska
Версия формата : Version 2
Размер файла : 2,90 Гбайт
Продолжительность : 2 ч. 3 м.
Общий поток : 3348 Кбит/сек
Дата кодирования : UTC 2012-09-30 04:55:54
Программа кодирования : mkvmerge v5.7.0 ('The Whirlwind') built on Jul 8 2012 20:08:51
Библиотека кодирования : libebml v1.2.3 + libmatroska v1.3.0

Видео
Идентификатор : 1
Формат : AVC
Формат/Информация : Advanced Video Codec
Профиль формата : High@L4.1
Параметр CABAC формата : Да
Параметр ReFrames формата : 9 кадров
Идентификатор кодека : V_MPEG4/ISO/AVC
Продолжительность : 2 ч. 3 м.
Битрейт : 2454 Кбит/сек
Ширина : 1024 пикселя
Высота : 426 пикселей
Соотношение сторон : 2,40:1
Частота кадров : 23,976 кадра/сек
Цветовое пространство : YUV
Субдискретизация насыщенности : 4:2:0
Битовая глубина : 8 бит
Тип развёртки : Прогрессивная
Бит/(Пиксели*Кадры) : 0.235
Размер потока : 2,06 Гбайт (71%)
Заголовок : Прометей / Prometheus (2012) BDRip-AVC | HQCLUB
Библиотека кодирования : x264 core 120 r2146 bcd41db
Настройки программы : cabac=1 / ref=9 / deblock=1:-3:-3 / analyse=0x3:0x113 / me=umh / subme=11 / psy=1 / psy_rd=1.00:0.00 / mixed_ref=1 / me_range=64 / chroma_me=1 / trellis=2 / 8x8dct=1 / cqm=0 / deadzone=21,11 / fast_pskip=1 / chroma_qp_offset=-2 / threads=6 / sliced_threads=0 / nr=0 / decimate=1 / interlaced=0 / bluray_compat=0 / constrained_intra=0 / bframes=11 / b_pyramid=2 / b_adapt=2 / b_bias=0 / direct=1 / weightb=1 / open_gop=0 / weightp=2 / keyint=230 / keyint_min=22 / scenecut=40 / intra_refresh=0 / rc=2pass / mbtree=0 / bitrate=2454 / ratetol=1.0 / qcomp=0.60 / qpmin=10 / qpmax=51 / qpstep=4 / cplxblur=20.0 / qblur=0.5 / ip_ratio=1.40 / pb_ratio=1.30 / aq=1:0.90
Язык : English
Default : Да
Forced : Нет

Аудио #1
Идентификатор : 2
Формат : AC-3
Формат/Информация : Audio Coding 3
Расширение режима : CM (complete main)
Параметр Endianness формата : Big
Идентификатор кодека : A_AC3
Продолжительность : 2 ч. 3 м.
Вид битрейта : Постоянный
Битрейт : 448 Кбит/сек
Каналы : 6 каналов
Расположение каналов : Front: L C R, Side: L R, LFE
Частота : 48,0 КГц
Битовая глубина : 16 бит
Метод сжатия : С потерями
Размер потока : 397 Мбайт (13%)
Заголовок : Дубляж (BD EUR) AC3 5.1 @ 448 kbps
Язык : Russian
Default : Да
Forced : Да

Аудио #2
Идентификатор : 3
Формат : AC-3
Формат/Информация : Audio Coding 3
Расширение режима : CM (complete main)
Параметр Endianness формата : Big
Идентификатор кодека : A_AC3
Продолжительность : 2 ч. 3 м.
Вид битрейта : Постоянный
Битрейт : 448 Кбит/сек
Каналы : 6 каналов
Расположение каналов : Front: L C R, Side: L R, LFE
Частота : 48,0 КГц
Битовая глубина : 16 бит
Метод сжатия : С потерями
Размер потока : 397 Мбайт (13%)
Заголовок : Оригинал AC3 5.1 @ 448 kbps
Язык : English
Default : Нет
Forced : Да

Текст #1
Идентификатор : 4
Формат : UTF-8
Идентификатор кодека : S_TEXT/UTF8
Идентификатор кодека/Информация : UTF-8 Plain Text
Заголовок : Full (Voronin)
Язык : Russian
Default : Да
Forced : Да

Текст #2
Идентификатор : 5
Формат : UTF-8
Идентификатор кодека : S_TEXT/UTF8
Идентификатор кодека/Информация : UTF-8 Plain Text
Заголовок : Full
Язык : English
Default : Нет
Forced : Да

Текст #3
Идентификатор : 6
Формат : UTF-8
Идентификатор кодека : S_TEXT/UTF8
Идентификатор кодека/Информация : UTF-8 Plain Text
Заголовок : Full
Язык : Ukrainian
Default : Нет
Forced : Да

Меню
00:00:00.000 : en:00:00:00.000
00:05:13.146 : en:00:05:13.146
00:07:44.881 : en:00:07:44.881
00:11:31.524 : en:00:11:31.524
00:15:09.783 : en:00:15:09.783
00:20:04.912 : en:00:20:04.912
00:22:32.809 : en:00:22:32.809
00:27:43.119 : en:00:27:43.119
00:31:57.832 : en:00:31:57.832
00:34:10.840 : en:00:34:10.840
00:37:53.229 : en:00:37:53.229
00:40:45.359 : en:00:40:45.359
00:45:49.329 : en:00:45:49.329
00:48:47.925 : en:00:48:47.925
00:50:23.061 : en:00:50:23.061
00:53:56.399 : en:00:53:56.399
00:56:32.222 : en:00:56:32.222
00:59:31.609 : en:00:59:31.609
01:01:29.185 : en:01:01:29.185
01:04:17.562 : en:01:04:17.562
01:06:01.457 : en:01:06:01.457
01:08:57.883 : en:01:08:57.883
01:11:13.519 : en:01:11:13.519
01:15:10.631 : en:01:15:10.631
01:17:06.038 : en:01:17:06.038
01:25:02.305 : en:01:25:02.305
01:27:09.349 : en:01:27:09.349
01:30:10.363 : en:01:30:10.363
01:32:43.724 : en:01:32:43.724
01:35:23.134 : en:01:35:23.134
01:37:46.860 : en:01:37:46.860
01:40:46.373 : en:01:40:46.373
01:43:46.220 : en:01:43:46.220
01:48:28.793 : en:01:48:28.793
01:52:08.096 : en:01:52:08.096
01:58:06.287 : en:01:58:06.287[/HTML]

x264 log
[HTML]-[NoImage] x264 [info]: frame I:1647 Avg QP:13.51 size: 65980
-[NoImage] x264 [info]: frame P:39065 Avg QP:15.39 size: 24817
-[NoImage] x264 [info]: frame B:137342 Avg QP:17.88 size: 8712
-[NoImage] x264 [info]: consecutive B-frames: 2.4% 2.4% 9.7% 22.6% 18.4% 27.7% 5.9% 7.3% 1.8% 0.8% 0.5% 0.5%[/HTML]

Ссылки для скачивания:

http//bt.hqclub.net/files/ok.png Торрент: Прометей / Prometheus (2012) BDRip-AVC

Лучшая онлайн игра!


Публикация материалов сайта на сторонних ресурсах возможна только в неизменном виде.


Обсудить релиз на форуме

Вас также может заинтересовать:


  • 5
 (Голосов: 17)


Распечатать новость на принтере Фантастика, Триллер, Приключения
Обновлено: 30.08.2014 - 22:07

КОММЕНТАРИИ

 №1. frozencowboy

Статус: Новичок | Новостей: 0 | Комментариев: 9
СПАСИБО ОГРОМНОЕ!
~~~

30.09.2012 - 10:09   цитировать  

 №2. k0nctant1n

Статус: Новичок | Новостей: 0 | Комментариев: 1
k0nctant1n Заявлено тип формата avi, на самом деле mkv. Исправьте формат или перезалейте в заявленном.
~~~

30.09.2012 - 13:55   цитировать  

 №3. Sky™

Статус: Новичок | Новостей: 153 | Комментариев: 43
Sky™ тф исправлен, перекачайте
~~~

30.09.2012 - 18:46   цитировать  

 №4. SerB_777

Статус: Кинокритик | Новостей: 0 | Комментариев: 583
SerB_777 Sky™, БОЛЬШОЕ СПАСИБО ЗА ТРУД!!!
Порядок, качаем...
~~~

1.10.2012 - 02:09   цитировать  

 №5. zeffc63

Статус: Кинокритик | Новостей: 0 | Комментариев: 1096
zeffc63 Sky™ Спасибо за фильм и качество!
~~~

2.10.2012 - 01:27   цитировать  

 №6. SerB_777

Статус: Кинокритик | Новостей: 0 | Комментариев: 583
SerB_777 Мне понравилось. Ридли Скотт умеет делать кино, которое заурядным не назовешь. "Прометей" - качественный фантастический фильм, с оригинальной и, надеюсь, перспективной идеей, продуманным добротным сюжетом, великолепно созданной атмосферой таинственной загадочности и впечатляющей зрелищной составляющей. Просмотр бодрит воображение, а мозг наполняют вопросы, на которые нет ответов...
Принимать ли этот фильм как приквел к "Чужому" и в какой последовательности все это смотреть - решит зритель. Привязка есть, но очень легкая, "в несколько стежков". В сущности, "Прометей" самостоятелен и имеет право на свою историю с продолжением (и оно обещано!).
Смотрим, впечатляемся, ждем...
Кстати, постер классный!
Автору еще раз БОЛЬШОЕ СПАСИБО за труд!!!
~~~

4.10.2012 - 01:24   цитировать  

 №7. ru4lan

Статус: Кинокритик | Новостей: 0 | Комментариев: 2736
ru4lan Спасибо!
~~~

31.10.2012 - 01:28   цитировать