Вас Приветствует Релиз-группа HQCLUB


Помощь ресурсу, очень ВАЖНО!!!



.


WELCOME
Добро пожаловать в наше интернет - сообщество!

Всех нас объединяет одна страсть - страсть к высококачественному кино. А это наш сайт. Ежедневно здесь мы публикуем десятки качественных, свежих, а порой и эксклюзивных релизов, которые Вы можете скачать совершенно бесплатно и без каких-либо регистраций. Посему рекомендуем Вам добавить HQClub себе в закладки, а также подписаться на нашу ленту новостей, чтобы всегда быть в курсе всех событий. Ну а если Вы такой же синий фил, как и мы, то милости просим на наш форум. И в заключение, попробуйте зарегистрироваться, ведь не так это и сложно и займет всего лишь пару минут! Вот увидите, Вам у нас понравится и Вы вольетесь в наш дружный коллектив! Ну а пока - осматривайтесь = )
Мы рады Вам !





Континуум / Project Almanac (2015) BDRip 1080p

Оформил: Elheym | 29 июня 2015 - 23:15:35 | Комментариев: 2 | Обращений: 1094 {bookmarks_news}

http//lostpic.net/orig_images/a/6/f/a6f17186c8fa563b167ac3f2e3d782a2.png

Информация о фильме:
Название: Континуум
Оригинальное название: Project Almanac
Год выхода: 2015
Жанр: фантастика, триллер
Режиссер: Дин Израэлайт / Dean Israelite
В ролях: Джонни Уэстон, София Блэк-Д’Элиа, Сэм Лернер, Аллен Евангелиста, Вирджиния Гарднер, Эми Ландекер, Гари Викс, Максен Линтц, Гэри Граббс, Мишель ДеФрайтс

О фильме: Однажды после просмотра старой пленки со дня рождения уже взрослый именинник заметил себя «настоящего» в отражении на видео. Съедаемые любопытством, друзья нашли чертежи таинственного устройства, похожего на машину времени. Они решили доделать ее и испробовать, чтобы вернуться в прошлое и исправить некоторые ошибки.

Но что будет, если группа отвязных тинейджеров случайно завладеет машиной времени? Однозначно, будет весело! Пока кто-то не нарушит правила, и веселая шутка не обернется кошмаром. Надо торопиться восстановить континуум, пока мир окончательно не разрушен!

«Вчера будет весело»



http//rating.kinopoisk.ru/711454.gif http//tracker.0day.kiev.ua/imdb/imdb_tt2436386.gif

Релиз от - http//hqclub.net/images/hqclub.png
Автор рипа: Elheym

Выпущено: США ‖ Insurge Pictures, MTV Films, Paramount Pictures, Platinum Dunes
Продолжительность: 01:46:12
Перевод: Профессиональный (полное дублирование) BD EUR
Оригинальная аудиодорожка: английская
Субтитры: русские (полные: BD, iTunes; форсированные), украинские (полные), английские (полные х2, SDH, SDH цветные)
Главы: присутствуют, сохранены оригинальные

Файл:
Формат: MKV
Качество: BDRip 1080p (источник: http//i28.fastpic.ru/big/2011/1013/a8/a3d28e80c9544f4c572189fc892ea8.gif / Blu-ray EUR [PROJECT_ALMANAC_HDCLUB] / 1080p)
Видео: 1920x800 (2.40:1), 23.976 fps, MPEG-4 AVC, ~17000 kbps avg, 0.462 bit/pixel
Аудио #1: 48 kHz, AC3 Dolby Digital, 3/2 (L,C,R,l,r) + LFE ch, ~640 kbps avg (DUB)
Аудио #2: 48 kHz, DTS, 3/2 (L,C,R,l,r) + LFE ch, ~1509 kbps avg (ENG)
Размер: 14.21 GB
Сэмпл: скачать

http//lostpic.net/thumbs_images/7/3/b/73b36acfddd2ab33ce36b0a302fb91c1.png http//lostpic.net/thumbs_images/5/8/5/585c31b0e939d15081034063c0591b.png http//lostpic.net/thumbs_images/2/6/7/26758366d9f20c46cd7d0ce6fa6506.png http//lostpic.net/thumbs_images/e/8/b/e8b6b1d9bcbb9026da3d6136cab02c71.png

"MediaInfo"

Уникальный идентификатор : 246124543504630135314785809088664079695 (0xB929DCE2FA8E43A1B9A2DBB054208D4F)
Полное имя : Project.Almanac.2015.1080p.BluRay.Rus.Eng.-HQCLUB.mkv
Формат : Matroska
Версия формата : Version 2
Размер файла : 14,2 Гбайт
Продолжительность : 1 ч. 46 м.
Общий поток : 19,1 Мбит/сек
Название фильма : Континуум / Project Almanac (2015) BDRip 1080p by HQCLUB [Elheym]
Дата кодирования : UTC 2015-06-28 15:53:45
Программа кодирования : mkvmerge v5.2.0 ('I can't explain') built on Dec 18 2011 18:12:03
Библиотека кодирования : libebml v1.2.3 + libmatroska v1.3.0
Attachements : Cover.png

Видео
Идентификатор : 1
Формат : AVC
Формат/Информация : Advanced Video Codec
Профиль формата : High@L4.1
Параметр CABAC формата : Да
Параметр ReFrames формата : 4 кадра
Идентификатор кодека : V_MPEG4/ISO/AVC
Продолжительность : 1 ч. 46 м.
Битрейт : 17,0 Мбит/сек
Ширина : 1920 пикселей
Высота : 800 пикселей
Соотношение сторон : 2,40:1
Режим частоты кадров : Постоянный
Частота кадров : 23,976 кадра/сек
Цветовое пространство : YUV
Субдискретизация насыщенности : 4:2:0
Битовая глубина : 8 бит
Тип развёртки : Прогрессивная
Бит/(Пиксели*Кадры) : 0.462
Размер потока : 12,3 Гбайт (87%)
Заголовок : Континуум / Project Almanac (2015) BDRip 1080p by HQCLUB [Elheym]
Библиотека кодирования : x264 core 146 r0+2586 e393126 t_mod_Custom [8-bit@all X86_64]
Настройки программы : cabac=1 / ref=4 / deblock=1:-3:-2 / analyse=0x3:0x113 / me=umh / subme=11 / psy=1 / fade_compensate=0.00 / psy_rd=1.05:0.10 / mixed_ref=1 / me_range=32 / chroma_me=1 / trellis=2 / 8x8dct=1 / cqm=0 / deadzone=19,11 / fast_pskip=0 / chroma_qp_offset=-3 / threads=6 / lookahead_threads=2 / sliced_threads=0 / nr=0 / decimate=0 / interlaced=0 / bluray_compat=0 / constrained_intra=0 / fgo=3 / bframes=12 / b_pyramid=2 / b_adapt=2 / b_bias=0 / direct=3 / weightb=1 / open_gop=0 / weightp=2 / keyint=240 / keyint_min=23 / scenecut=40 / intra_refresh=0 / rc_lookahead=80 / rc=2pass / mbtree=0 / bitrate=17000 / ratetol=1.0 / qcomp=0.90 / qpmin=0:0:0 / qpmax=69:69:69 / qpstep=4 / cplxblur=20.0 / qblur=0.5 / vbv_maxrate=50000 / vbv_bufsize=62500 / nal_hrd=none / filler=0 / ip_ratio=1.40 / pb_ratio=1.22 / aq=2:0.50 / aq-sensitivity=12.00 / aq-factor=1.00:0.70:0.70 / aq2=0 / aq3=0 / zones=145758,152646,b=0.18
Язык : English
Default : Да
Forced : Нет

Аудио #1
Идентификатор : 2
Формат : AC-3
Формат/Информация : Audio Coding 3
Расширение режима : CM (complete main)
Параметр Endianness формата : Big
Идентификатор кодека : A_AC3
Продолжительность : 1 ч. 46 м.
Вид битрейта : Постоянный
Битрейт : 640 Кбит/сек
Каналы : 6 каналов
Расположение каналов : Front: L C R, Side: L R, LFE
Частота : 48,0 КГц
Метод сжатия : С потерями
Размер потока : 486 Мбайт (3%)
Заголовок : АС3 5.1 @ 640 kbps - Dub, BD EUR
Язык : Russian
Default : Нет
Forced : Нет

Аудио #2
Идентификатор : 3
Формат : DTS
Формат/Информация : Digital Theater Systems
Режим : 16
Параметр Endianness формата : Big
Идентификатор кодека : A_DTS
Продолжительность : 1 ч. 46 м.
Вид битрейта : Постоянный
Битрейт : 1509 Кбит/сек
Каналы : 6 каналов
Расположение каналов : Front: L C R, Side: L R, LFE
Частота : 48,0 КГц
Битовая глубина : 24 бит
Метод сжатия : С потерями
Размер потока : 1,12 Гбайт (8%)
Заголовок : DTS 5.1 @ 1509 kbps - Original
Язык : English
Default : Нет
Forced : Нет

Текст #1
Идентификатор : 4
Формат : UTF-8
Идентификатор кодека : S_TEXT/UTF8
Идентификатор кодека/Информация : UTF-8 Plain Text
Заголовок : Full, BD
Язык : Russian
Default : Нет
Forced : Нет

Текст #2
Идентификатор : 5
Формат : UTF-8
Идентификатор кодека : S_TEXT/UTF8
Идентификатор кодека/Информация : UTF-8 Plain Text
Заголовок : Full, iTunes
Язык : Russian
Default : Нет
Forced : Нет

Текст #3
Идентификатор : 6
Формат : UTF-8
Идентификатор кодека : S_TEXT/UTF8
Идентификатор кодека/Информация : UTF-8 Plain Text
Заголовок : Forced, iTunes
Язык : Russian
Default : Да
Forced : Нет

Текст #4
Идентификатор : 7
Формат : UTF-8
Идентификатор кодека : S_TEXT/UTF8
Идентификатор кодека/Информация : UTF-8 Plain Text
Заголовок : Full
Язык : Ukrainian
Default : Нет
Forced : Нет

Текст #5
Идентификатор : 8
Формат : UTF-8
Идентификатор кодека : S_TEXT/UTF8
Идентификатор кодека/Информация : UTF-8 Plain Text
Заголовок : Full, BD
Язык : English
Default : Нет
Forced : Нет

Текст #6
Идентификатор : 9
Формат : UTF-8
Идентификатор кодека : S_TEXT/UTF8
Идентификатор кодека/Информация : UTF-8 Plain Text
Заголовок : Full, iTunes
Язык : English
Default : Нет
Forced : Нет

Текст #7
Идентификатор : 10
Формат : UTF-8
Идентификатор кодека : S_TEXT/UTF8
Идентификатор кодека/Информация : UTF-8 Plain Text
Заголовок : SDH
Язык : English
Default : Нет
Forced : Нет

Текст #8
Идентификатор : 11
Формат : UTF-8
Идентификатор кодека : S_TEXT/UTF8
Идентификатор кодека/Информация : UTF-8 Plain Text
Заголовок : SDH Colored
Язык : English
Default : Нет
Forced : Нет

Меню
00:00:00.000 : :Chapter 01
00:07:56.308 : :Chapter 02
00:15:20.210 : :Chapter 03
00:23:49.802 : :Chapter 04
00:31:15.664 : :Chapter 05
00:39:19.273 : :Chapter 06
00:46:58.273 : :Chapter 07
00:54:11.956 : :Chapter 08
01:00:55.485 : :Chapter 09
01:09:43.304 : :Chapter 10
01:16:24.371 : :Chapter 11
01:23:07.731 : :Chapter 12
01:32:20.618 : :Chapter 13
01:41:19.323 : :Chapter 14
01:46:12.532 : :Chapter 15

"x264 log"

x264 [info]: frame I:713 Avg QP:16.12 size:212351
x264 [info]: frame P:39830 Avg QP:18.78 size:123302
x264 [info]: frame B:112251 Avg QP:20.28 size: 75496

x264 [info]: consecutive B-frames: 4.8% 5.9% 16.3% 14.2% 12.9% 36.8% 3.3% 1.2% 1.3% 1.0% 0.8% 0.5% 0.9%

x264 [info]: ref P L0: 51.2% 8.7% 25.7% 11.6% 2.7% 0.1%
x264 [info]: ref B L0: 84.4% 12.8% 2.8%
x264 [info]: ref B L1: 91.9% 8.1%


Ссылки для скачивания:

http//bt.hqclub.net/files/ok.png Торрент: Континуум / Project Almanac (2015) BDRip 1080p

Лучшая онлайн игра!


Публикация материалов сайта на сторонних ресурсах возможна только в неизменном виде.


Обсудить релиз на форуме

Вас также может заинтересовать:


  • 5
 (Голосов: 1)


Распечатать новость на принтере Фантастика, Триллер
Обновлено: 11.07.2015 - 07:18

КОММЕНТАРИИ

 №1. S_Gur

Статус: Новичок | Новостей: 0 | Комментариев: 1
Данная ссылка на BDRip 720. Исправьте, пожалуйств
~~~

30.06.2015 - 10:38   цитировать  

 №2. Elheym

Статус: Стажер | Новостей: 320 | Комментариев: 70
Благодарю за поправку, исправил.
~~~

11.07.2015 - 07:17   цитировать