Вас Приветствует Релиз-группа HQCLUB


Помощь ресурсу, очень ВАЖНО!!!



.


WELCOME
Добро пожаловать в наше интернет - сообщество!

Всех нас объединяет одна страсть - страсть к высококачественному кино. А это наш сайт. Ежедневно здесь мы публикуем десятки качественных, свежих, а порой и эксклюзивных релизов, которые Вы можете скачать совершенно бесплатно и без каких-либо регистраций. Посему рекомендуем Вам добавить HQClub себе в закладки, а также подписаться на нашу ленту новостей, чтобы всегда быть в курсе всех событий. Ну а если Вы такой же синий фил, как и мы, то милости просим на наш форум. И в заключение, попробуйте зарегистрироваться, ведь не так это и сложно и займет всего лишь пару минут! Вот увидите, Вам у нас понравится и Вы вольетесь в наш дружный коллектив! Ну а пока - осматривайтесь = )
Мы рады Вам !





Страховщик / Automata (2014) BDRip-AVC

Оформил: Elheym | 21 декабря 2014 - 07:00:15 | Комментариев: 1 | Обращений: 1215 {bookmarks_news}

http//lostpic.net/orig_images/3/0/e/30e1b75e7d70566398a2eb1515a163.jpg

Информация о фильме:
Название: Страховщик
Оригинальное название: Automata
Год выхода: 2014
Жанр: фантастика, триллер
Режиссер: Габе Ибаньес / Gabe Ibáñez
В ролях: Антонио Бандерас, Биргитта Йорт Сёренсен, Мелани Гриффит, Дилан МакДермотт, Роберт Форстер, Тим МакИннерни, Энди Найман, Дэвид Райалл, Эндрю Тирнан, Криста Кэмпбелл

О фильме: Главный герой фильма — страховой агент компании по изготовлению роботов Жак Вокан, который обнаруживает, что изобретаемые роботы создаются не для эксплуатации, а для истребления.

«Ваше время подошло к концу. Наше только начинается»



http//rating.kinopoisk.ru/596231.gif http//tracker.0day.kiev.ua/imdb/imdb_tt1971325.gif

Релиз от - http//hqclub.net/images/hqclub.png
Автор рипа: Elheym

Выпущено: Испания, Болгария, Green Moon, Nu Boyana Viburno
Продолжительность: 1:49:54
Перевод 1: Профессиональный (полное дублирование), BD RUS
Перевод 2: Авторский (одноголосый, закадровый), С. Визгунов
Перевод 3: Одноголосый (закадровый), Д. Есарев
Оригинальная аудиодорожка: английская
Субтитры: русские (полные, форсированные), английские (полные, полные SDH)
Главы: присутствуют, сохранены оригинальные

Дополнительные аудиодорожки:
+ Авторский (одноголосый, закадровый), С. Визгунов
+ Одноголосый (закадровый), Д. Есарев

Файл:
Формат: MKV
Качество: (источник: http//lostpic.net/images/20a38122bcc5994b3cdae6e4b4b0.png / Blu-ray [US] Disc / 1080p)
Видео: 1116x472 (2.35:1), 23.976 fps, MPEG-4 AVC, ~2999 kbps avg, 0.237 bit/pixel
Аудио #1: 48 kHz, AC3 Dolby Digital, 3/2 (L,C,R,l,r) + LFE ch, ~448 kbps avg (DUB)
Аудио #2: 48 kHz, AC3 Dolby Digital, 3/2 (L,C,R,l,r) + LFE ch, ~448 kbps avg (ENG)
Аудио #3: 48 kHz, AC3 Dolby Digital, 3/2 (L,C,R,l,r) + LFE ch, ~448 kbps avg (AVO.VIZGUNOV) (отдельно)
Аудио #4: 48 kHz, AC3 Dolby Digital, 3/2 (L,C,R,l,r) + LFE ch, ~448 kbps avg (VO.ESAREV) (отдельно)
Размер: 3.04 GB
Сэмпл: скачать

http//lostpic.net/thumbs_images/f/e/9/fe980ac696372eaa99eac0593e36ea8d.png http//lostpic.net/thumbs_images/8/2/6/8269c2f692dc176a145d5b789be74d.png http//lostpic.net/thumbs_images/9/b/6/9b66d6d68a392943da1358ce4a592a7c.png http//lostpic.net/thumbs_images/5/e/2/5e234fadad6d7b15528bb0ff91a1e0.png http//lostpic.net/thumbs_images/f/1/3/f1341e1cc7933a89d05d94d3674474.png http//lostpic.net/thumbs_images/6/b/8/6b8799351c8470d511e6f7acb13f6b4c.png

"MediaInfo"

Уникальный идентификатор : 252535021580670856756842601380379640394 (0xBDFC79DB960F61E99F66576EB518424A)
Полное имя : Automata.US.2014.DUAL.BDRip-AVC.x264.AC3.-HQCLUB.mkv
Формат : Matroska
Версия формата : Version 2
Размер файла : 3,05 Гбайт
Продолжительность : 1 ч. 49 м.
Общий поток : 3974 Кбит/сек
Дата кодирования : UTC 2014-12-21 03:08:29
Программа кодирования : mkvmerge v5.2.0 ('I can't explain') built on Dec 18 2011 18:12:03
Библиотека кодирования : libebml v1.2.3 + libmatroska v1.3.0

Видео
Идентификатор : 1
Формат : AVC
Формат/Информация : Advanced Video Codec
Профиль формата : High@L4.1
Параметр CABAC формата : Да
Параметр ReFrames формата : 12 кадров
Идентификатор кодека : V_MPEG4/ISO/AVC
Продолжительность : 1 ч. 49 м.
Битрейт : 2999 Кбит/сек
Ширина : 1116 пикселей
Высота : 472 пикселя
Соотношение сторон : 2,35:1
Режим частоты кадров : Постоянный
Частота кадров : 23,976 кадра/сек
Цветовое пространство : YUV
Субдискретизация насыщенности : 4:2:0
Битовая глубина : 8 бит
Тип развёртки : Прогрессивная
Бит/(Пиксели*Кадры) : 0.237
Размер потока : 2,30 Гбайт (75%)
Заголовок : Страховщик / Automata [US] (2014) BDRip-AVC by HQCLUB [Elheym]
Библиотека кодирования : x264 core 142 r2491kMod 24e4fed
Настройки программы : cabac=1 / ref=12 / deblock=1:-3:-2 / analyse=0x3:0x133 / me=umh / subme=11 / psy=1 / fade_compensate=0.00 / psy_rd=1.00:0.00 / mixed_ref=1 / me_range=32 / chroma_me=1 / trellis=2 / 8x8dct=1 / cqm=0 / deadzone=21,11 / fast_pskip=1 / chroma_qp_offset=-4 / threads=6 / lookahead_threads=1 / sliced_threads=0 / nr=0 / decimate=1 / interlaced=0 / bluray_compat=0 / constrained_intra=0 / fgo=0 / bframes=13 / b_pyramid=2 / b_adapt=2 / b_bias=0 / direct=1 / weightb=1 / open_gop=0 / weightp=2 / keyint=230 / keyint_min=23 / scenecut=40 / intra_refresh=0 / rc_lookahead=40 / rc=crf / mbtree=0 / crf=18.5000 / qcomp=0.70 / qpmin=0 / qpmax=69 / qpstep=4 / vbv_maxrate=50000 / vbv_bufsize=62500 / crf_max=0.0 / nal_hrd=none / filler=0 / ip_ratio=1.40 / pb_ratio=1.30 / aq=3:0.90 / zones=150894,158092,b=0.3
Язык : English
Default : Да
Forced : Нет

Аудио #1
Идентификатор : 2
Формат : AC-3
Формат/Информация : Audio Coding 3
Расширение режима : CM (complete main)
Параметр Endianness формата : Big
Идентификатор кодека : A_AC3
Продолжительность : 1 ч. 49 м.
Вид битрейта : Постоянный
Битрейт : 448 Кбит/сек
Каналы : 6 каналов
Расположение каналов : Front: L C R, Side: L R, LFE
Частота : 48,0 КГц
Битовая глубина : 16 бит
Метод сжатия : С потерями
Размер потока : 352 Мбайт (11%)
Заголовок : АС3 5.1 @ 448 kbps - Dub, BD RUS
Язык : Russian
Default : Нет
Forced : Нет

Аудио #2
Идентификатор : 3
Формат : AC-3
Формат/Информация : Audio Coding 3
Расширение режима : CM (complete main)
Параметр Endianness формата : Big
Идентификатор кодека : A_AC3
Продолжительность : 1 ч. 49 м.
Вид битрейта : Постоянный
Битрейт : 448 Кбит/сек
Каналы : 6 каналов
Расположение каналов : Front: L C R, Side: L R, LFE
Частота : 48,0 КГц
Битовая глубина : 16 бит
Метод сжатия : С потерями
Размер потока : 352 Мбайт (11%)
Заголовок : АС3 5.1 @ 448 kbps - Original
Язык : English
Default : Нет
Forced : Нет

Текст #1
Идентификатор : 4
Формат : UTF-8
Идентификатор кодека : S_TEXT/UTF8
Идентификатор кодека/Информация : UTF-8 Plain Text
Заголовок : Full
Язык : Russian
Default : Нет
Forced : Нет

Текст #2
Идентификатор : 5
Формат : UTF-8
Идентификатор кодека : S_TEXT/UTF8
Идентификатор кодека/Информация : UTF-8 Plain Text
Заголовок : Forced
Язык : Russian
Default : Нет
Forced : Нет

Текст #3
Идентификатор : 6
Формат : UTF-8
Идентификатор кодека : S_TEXT/UTF8
Идентификатор кодека/Информация : UTF-8 Plain Text
Заголовок : Full
Язык : English
Default : Нет
Forced : Нет

Текст #4
Идентификатор : 7
Формат : UTF-8
Идентификатор кодека : S_TEXT/UTF8
Идентификатор кодека/Информация : UTF-8 Plain Text
Заголовок : Full SDH
Язык : English
Default : Нет
Forced : Нет

Меню
00:00:00.000 : :Chapter 01
00:09:40.454 : :Chapter 02
00:18:46.917 : :Chapter 03
00:28:32.836 : :Chapter 04
00:39:07.094 : :Chapter 05
00:47:33.475 : :Chapter 06
00:56:55.954 : :Chapter 07
01:06:05.503 : :Chapter 08
01:17:27.809 : :Chapter 09
01:26:11.958 : :Chapter 10
01:34:06.474 : :Chapter 11
01:44:53.412 : :Chapter 12
01:49:54.087 : :Chapter 13

"x264 log"

x264 [info]: frame I:1463 Avg QP:15.92 size: 71007
x264 [info]: frame P:29426 Avg QP:17.63 size: 33171
x264 [info]: frame B:127204 Avg QP:19.32 size: 11437

x264 [info]: consecutive B-frames: 1.7% 1.1% 3.8% 9.2% 12.5% 56.9% 6.7% 1.6% 2.0% 1.2% 0.8% 0.6% 1.1% 0.9%

x264 [info]: ref P L0: 43.0% 10.2% 17.7% 7.0% 6.0% 4.0% 3.8% 2.0% 1.9% 1.5% 1.5% 1.2% 0.2% 0.0%
x264 [info]: ref B L0: 68.3% 12.3% 6.6% 3.6% 2.6% 2.2% 1.7% 1.1% 0.9% 0.5% 0.2%
x264 [info]: ref B L1: 92.4% 7.6%


Ссылки для скачивания:

http//bt.hqclub.net/files/ok.png Торрент: Страховщик / Automata (2014) BDRip-AVC

Лучшая онлайн игра!


Публикация материалов сайта на сторонних ресурсах возможна только в неизменном виде.


Обсудить релиз на форуме

Вас также может заинтересовать:


  • 4
 (Голосов: 5)


Распечатать новость на принтере Фантастика, Триллер

КОММЕНТАРИИ

 №1. ru4lan

Статус: Кинокритик | Новостей: 0 | Комментариев: 2736
ru4lan Отличный формат и размерчик
~~~

21.12.2014 - 16:07   цитировать