Вас Приветствует Релиз-группа HQCLUB


Помощь ресурсу, очень ВАЖНО!!!



.


WELCOME
Добро пожаловать в наше интернет - сообщество!

Всех нас объединяет одна страсть - страсть к высококачественному кино. А это наш сайт. Ежедневно здесь мы публикуем десятки качественных, свежих, а порой и эксклюзивных релизов, которые Вы можете скачать совершенно бесплатно и без каких-либо регистраций. Посему рекомендуем Вам добавить HQClub себе в закладки, а также подписаться на нашу ленту новостей, чтобы всегда быть в курсе всех событий. Ну а если Вы такой же синий фил, как и мы, то милости просим на наш форум. И в заключение, попробуйте зарегистрироваться, ведь не так это и сложно и займет всего лишь пару минут! Вот увидите, Вам у нас понравится и Вы вольетесь в наш дружный коллектив! Ну а пока - осматривайтесь = )
Мы рады Вам !





Судная ночь 2 / The Purge: Anarchy (2014) BDRip-AVC

Оформил: Elheym | 11 ноября 2014 - 21:21:50 | Комментариев: 2 | Обращений: 747 {bookmarks_news}

http//lostpic.net/orig_images/f/1/3/f1313ab55f4c9c5c347fda1b821a1fd1.jpg

Информация о фильме:
Название: Судная ночь 2
Оригинальное название: The Purge: Anarchy
Год выхода: 2014
Жанр: триллер, криминал, боевик
Режиссер: Джеймс ДеМонако / James DeMonaco
В ролях: Фрэнк Грилло, Кармен Эджого, Зак Гилфорд, Киле Санчес, Майкл К. Уильямс, Зои Борд, Жустина Мачадо, Джон Бизли, Джек Конли, Ноэль Гульеми

О фильме: Добро пожаловать в идеальный мир будущего, мир без преступности и войн. И только один раз в году роскошная спокойная жизнь сменяется анархией. Этой ночью дозволено все: во тьме улиц одни жаждут мести, другие ищут развлечений, остальные пытаются дожить до рассвета...

«Добро пожаловать в идеальное будущее, где одну ночь в году все преступления легальны»



http//rating.kinopoisk.ru/770805.gif http//tracker.0day.kiev.ua/imdb/imdb_tt29758.gif

Релиз от - http//hqclub.net/images/hqclub.png
Автор рипа: Elheym

Выпущено: США, Франция, Blumhouse Productions, Platinum Dunes, Universal Pictures, Why Not Productions
Продолжительность: 01:43:34
Перевод : Профессиональный (полное дублирование), BD EUR
Оригинальная аудио дорожка: английский
Субтитры: русские (полные, форсированные), украинские (полные), английские (полные, полные SDH)
Главы: присутствуют, сохранены оригинальные

Дополнительные аудиодорожки:
+ Авторский (одноголосый, закадровый) А. Карповский

Файл:
Формат: MKV
Качество: BDRip-AVC (источник: http//i28.fastpic.ru/big/2011/1013/a8/a3d28e80c9544f4c572189fc892ea8.gif / Blu-ray EUR / 1080p)
Видео: 1152x480 (2.40:1), 23.976 fps, MPEG-4 AVC, ~3389 kbps avg, 0.256 bit/pixel
Аудио #1: 48 kHz, AC3 Dolby Digital, 3/2 (L,C,R,l,r) + LFE ch, ~448 kbps avg (DUB)
Аудио #2: 48 kHz, AC3 Dolby Digital, 3/2 (L,C,R,l,r) + LFE ch, ~448 kbps avg (ENG)
Аудио #3: 48 kHz, AC3 Dolby Digital, 3/2 (L,C,R,l,r) + LFE ch, ~448 kbps avg (AVO.KARPOVSKIJ) (отдельно)
Размер: 3.16 GB
Сэмпл: скачать

http//lostpic.net/thumbs_images/7/0/b/70ba538abb409567e2af7078ce1d7bcf.png http//lostpic.net/thumbs_images/b/8/9/b891b2b7d0766ed4188c05b222df19.png http//lostpic.net/thumbs_images/7/b/a/7ba3d6aa621d0e21769f2a5dc70a723f.png http//lostpic.net/thumbs_images/d/d/3/dd3b3d5af770591d0ac2510190b12e00.png http//lostpic.net/thumbs_images/c/4/b/c4b011a1821eb2bcd8e2af44ff52e63b.png http//lostpic.net/thumbs_images/a/e/b/aebc05e9708333f0ce36d7bd71068313.png

"MediaInfo"

Уникальный идентификатор : 208695005767977312571790670776590729010 (0x9D013232A4C91E01A190AAD74D04FF32)
Полное имя : The.Purge.Anarchy.2014.DUAL.BDRip-AVC.x264.AC3.-HQCLUB.mkv
Формат : Matroska
Версия формата : Version 2
Размер файла : 3,16 Гбайт
Продолжительность : 1 ч. 43 м.
Общий поток : 4372 Кбит/сек
Дата кодирования : UTC 2014-11-11 15:57:36
Программа кодирования : mkvmerge v5.2.0 ('I can't explain') built on Dec 18 2011 18:12:03
Библиотека кодирования : libebml v1.2.3 + libmatroska v1.3.0

Видео
Идентификатор : 1
Формат : AVC
Формат/Информация : Advanced Video Codec
Профиль формата : High@L4.1
Параметр CABAC формата : Да
Параметр ReFrames формата : 14 кадров
Идентификатор кодека : V_MPEG4/ISO/AVC
Продолжительность : 1 ч. 43 м.
Битрейт : 3389 Кбит/сек
Ширина : 1152 пикселя
Высота : 480 пикселей
Соотношение сторон : 2,40:1
Режим частоты кадров : Постоянный
Частота кадров : 23,976 кадра/сек
Цветовое пространство : YUV
Субдискретизация насыщенности : 4:2:0
Битовая глубина : 8 бит
Тип развёртки : Прогрессивная
Бит/(Пиксели*Кадры) : 0.256
Размер потока : 2,45 Гбайт (78%)
Заголовок : Судная ночь 2 / The Purge: Anarchy (2014) BDRip-AVC by HQCLUB [Elheym]
Библиотека кодирования : x264 core 142 r2479kMod dd79a61
Настройки программы : cabac=1 / ref=14 / deblock=1:-3:-2 / analyse=0x3:0x113 / me=umh / subme=11 / psy=1 / fade_compensate=0.00 / psy_rd=1.06:0.00 / mixed_ref=1 / me_range=32 / chroma_me=1 / trellis=2 / 8x8dct=1 / cqm=0 / deadzone=21,11 / fast_pskip=0 / chroma_qp_offset=-4 / threads=6 / lookahead_threads=1 / sliced_threads=0 / nr=0 / decimate=1 / interlaced=0 / bluray_compat=0 / constrained_intra=0 / fgo=0 / bframes=11 / b_pyramid=2 / b_adapt=2 / b_bias=0 / direct=1 / weightb=1 / open_gop=0 / weightp=2 / keyint=230 / keyint_min=23 / scenecut=40 / intra_refresh=0 / rc_lookahead=40 / rc=crf / mbtree=1 / crf=17.6000 / qcomp=0.70 / qpmin=0 / qpmax=69 / qpstep=4 / vbv_maxrate=50000 / vbv_bufsize=62500 / crf_max=0.0 / nal_hrd=none / filler=0 / ip_ratio=1.40 / aq=1:0.90
Язык : English
Default : Да
Forced : Нет

Аудио #1
Идентификатор : 2
Формат : AC-3
Формат/Информация : Audio Coding 3
Расширение режима : CM (complete main)
Параметр Endianness формата : Big
Идентификатор кодека : A_AC3
Продолжительность : 1 ч. 43 м.
Вид битрейта : Постоянный
Битрейт : 448 Кбит/сек
Каналы : 6 каналов
Расположение каналов : Front: L C R, Side: L R, LFE
Частота : 48,0 КГц
Битовая глубина : 16 бит
Метод сжатия : С потерями
Размер потока : 332 Мбайт (10%)
Заголовок : АС3 5.1 @ 448 kbps - Dub, BD EUR
Язык : Russian
Default : Нет
Forced : Нет

Аудио #2
Идентификатор : 3
Формат : AC-3
Формат/Информация : Audio Coding 3
Расширение режима : CM (complete main)
Параметр Endianness формата : Big
Идентификатор кодека : A_AC3
Продолжительность : 1 ч. 43 м.
Вид битрейта : Постоянный
Битрейт : 448 Кбит/сек
Каналы : 6 каналов
Расположение каналов : Front: L C R, Side: L R, LFE
Частота : 48,0 КГц
Битовая глубина : 16 бит
Метод сжатия : С потерями
Размер потока : 332 Мбайт (10%)
Заголовок : АС3 5.1 @ 448 kbps - Original
Язык : English
Default : Нет
Forced : Нет

Текст #1
Идентификатор : 4
Формат : UTF-8
Идентификатор кодека : S_TEXT/UTF8
Идентификатор кодека/Информация : UTF-8 Plain Text
Заголовок : Full
Язык : Russian
Default : Нет
Forced : Нет

Текст #2
Идентификатор : 5
Формат : UTF-8
Идентификатор кодека : S_TEXT/UTF8
Идентификатор кодека/Информация : UTF-8 Plain Text
Заголовок : Forced
Язык : Russian
Default : Нет
Forced : Нет

Текст #3
Идентификатор : 6
Формат : UTF-8
Идентификатор кодека : S_TEXT/UTF8
Идентификатор кодека/Информация : UTF-8 Plain Text
Заголовок : Full
Язык : Ukrainian
Default : Нет
Forced : Нет

Текст #4
Идентификатор : 7
Формат : UTF-8
Идентификатор кодека : S_TEXT/UTF8
Идентификатор кодека/Информация : UTF-8 Plain Text
Заголовок : Full
Язык : English
Default : Нет
Forced : Нет

Текст #5
Идентификатор : 8
Формат : UTF-8
Идентификатор кодека : S_TEXT/UTF8
Идентификатор кодека/Информация : UTF-8 Plain Text
Заголовок : Full SDH
Язык : English
Default : Нет
Forced : Нет

Меню
00:00:00.000 : :Chapter 01
00:05:14.521 : :Chapter 02
00:09:49.838 : :Chapter 03
00:14:37.293 : :Chapter 04
00:18:32.944 : :Chapter 05
00:23:17.229 : :Chapter 06
00:31:21.796 : :Chapter 07
00:36:28.935 : :Chapter 08
00:41:18.559 : :Chapter 09
00:47:13.831 : :Chapter 10
00:51:38.761 : :Chapter 11
00:57:27.943 : :Chapter 12
01:01:48.662 : :Chapter 13
01:06:49.213 : :Chapter 14
01:10:11.916 : :Chapter 15
01:15:45.747 : :Chapter 16
01:21:14.493 : :Chapter 17
01:26:41.154 : :Chapter 18
01:31:17.970 : :Chapter 19
01:36:47.051 : :Chapter 20
01:43:34.498 : :Chapter 21

"x264 log"

x264 [info]: frame I:1112 Avg QP:13.84 size: 91640
x264 [info]: frame P:32168 Avg QP:17.69 size: 27089
x264 [info]: frame B:115725 Avg QP:19.22 size: 14904

x264 [info]: consecutive B-frames: 1.9% 2.1% 12.3% 13.8% 17.2% 43.0% 4.8% 1.1% 1.3% 0.8% 1.0% 0.6%

x264 [info]: ref P L0: 44.2% 6.7% 18.5% 8.1% 5.5% 4.0% 3.4% 1.9% 1.7% 1.4% 1.3% 1.1% 1.1% 1.0% 0.2% 0.0%
x264 [info]: ref B L0: 68.5% 13.0% 6.4% 3.5% 2.2% 1.7% 1.4% 0.9% 0.7% 0.6% 0.6% 0.4% 0.1%
x264 [info]: ref B L1: 90.9% 9.1%


Ссылки для скачивания:

http//bt.hqclub.net/files/ok.png Торрент: Судная ночь 2 / The Purge: Anarchy (2014) BDRip-AVC

Лучшая онлайн игра!


Публикация материалов сайта на сторонних ресурсах возможна только в неизменном виде.


Обсудить релиз на форуме

Вас также может заинтересовать:


  • 3
 (Голосов: 3)


Распечатать новость на принтере Триллер, Криминал, Боевик
Обновлено: 15.11.2014 - 00:01

КОММЕНТАРИИ

 №1. ru4lan

Статус: Кинокритик | Новостей: 0 | Комментариев: 2736
ru4lan вот размерчик по мне
~~~

11.11.2014 - 22:39   цитировать  

 №2. Elheym

Статус: Стажер | Новостей: 320 | Комментариев: 70
Добавлен перевод: Авторский (одноголосый, закадровый) А. Карповский
~~~

15.11.2014 - 00:02   цитировать