Вас Приветствует Релиз-группа HQCLUB


Помощь ресурсу, очень ВАЖНО!!!



.


WELCOME
Добро пожаловать в наше интернет - сообщество!

Всех нас объединяет одна страсть - страсть к высококачественному кино. А это наш сайт. Ежедневно здесь мы публикуем десятки качественных, свежих, а порой и эксклюзивных релизов, которые Вы можете скачать совершенно бесплатно и без каких-либо регистраций. Посему рекомендуем Вам добавить HQClub себе в закладки, а также подписаться на нашу ленту новостей, чтобы всегда быть в курсе всех событий. Ну а если Вы такой же синий фил, как и мы, то милости просим на наш форум. И в заключение, попробуйте зарегистрироваться, ведь не так это и сложно и займет всего лишь пару минут! Вот увидите, Вам у нас понравится и Вы вольетесь в наш дружный коллектив! Ну а пока - осматривайтесь = )
Мы рады Вам !





Законопослушный гражданин / Law Abiding Citizen [Unrated Director's Cut] (2009) 720p BDRip

Оформил: DaniLch | 18 октября 2011 - 14:52:40 | Комментариев: 1 | Обращений: 1945 {bookmarks_news}

http//lostpic.net/images/72b630ca11d97bc66ecf4e65ce503c.png

Название: Законопослушный гражданин
Оригинальное название: Law Abiding Citizen
Год выхода: 2009
Жанр: триллер, драма, криминал
Режиссер: Ф. Гэри Грей / F. Gary Gray
В ролях: Джейми Фокс, Джерард Батлер, Колм Мини, Брюс МакГилл, Лесли Бибб, Майкл Ирби, Грегори Итцин, Реджина Холл, Эмиральд Янг, Кристиан Столте

О фильме: Добропорядочный житель Филадельфии Клайд Шелтон теряет семью в результате бандитского нападения. Но когда преступники оказались в руках правосудия, выяснилось, что юридической Системе удобнее пойти на сделку с одним из бандитов, чтобы дать высшую меру другому.

Помощник окружного прокурора Ник Райс идет на эту сделку, вопреки протестам возмущенного Шелтона, свято верящего в безукоризненность Закона. Но его права были попраны… И тогда спустя годы безвестный мститель начинает творить собственную расправу над убийцами. Ник Райс достаточно быстро находит его. Это… Клайд Шелтон. Райсу кажется, что ему нетрудно добиться признания от раздавленного семейной трагедией Клайда.

Каково же изумление всех работников Системы, когда они обнаруживают, что даже помещенный в тюрьму, этот человек способен на самую жестокую и изощренную месть. Более того, они оказались совершенно бессильны перед гениальной игрой и смертоносными ударами изолированного в одиночке Шелтона! Законопослушный гражданин начал беспощадную войну против всех них. И дело вовсе не в мести…

http//www.kinopoisk.ru/rating/406408.gif

Релиз от - http//hqclub.net/images/hqclub.png
Автор рипа: DaniLch

Выпущено: http//lostpic.net/images/ac5cb4a618da65239cf7be53b9ab78.gif США | Overture Films
Продолжительность: 01:58:06

Контейнер: MKV
Видео: 1280x534 (2.40:1), 23.976 fps, x264@L4.1, crf, ~6502 kbps
Аудио #1: Russian: 48 kHz, AC3 Dolby Digital, 3/2 (L,C,R,l,r) + LFE ch, ~448 kbps |Многоголосый закадровый, Киномания|
Аудио #2: Russian: 48 kHz, AC3 Dolby Digital, 3/2 (L,C,R,l,r) + LFE ch, ~448 kbps |Одноголосый закадровый, Ю.Сербин|
Аудио #3: Russian: 48 kHz, AC3 Dolby Digital, 3/2 (L,C,R,l,r) + LFE ch, ~448 kbps |Одноголосый закадровый, А.Гаврилов|
Аудио #4: Russian: 48 kHz, AC3 Dolby Digital, 3/2 (L,C,R,l,r) + LFE ch, ~384 kbps |Одноголосый закадровый, В.Замез (zamez)|
Аудио #5: English: 48 kHz, AC3 Dolby Digital, 3/2 (L,C,R,l,r) + LFE ch, ~640 kbps
Субтитры: русские, английские
Размер: 7.46 Gb

http//lostpic.net/thumbs/ccf1f9f79d540554a4aa8818fbf37c8b.png http//lostpic.net/thumbs/598d3fb5827ec5293814213c44f94f19.png http//lostpic.net/thumbs/7f5e1eaf19e3ed7b5e0118185e012bc6.png http//lostpic.net/thumbs/0ea7badbde758c81423cb782869208.png
http//lostpic.net/thumbs/179ef9188011d4a84ae50fb116e796a0.png http//lostpic.net/thumbs/781c301bd0e9fead4b9b43e22462.png http//lostpic.net/thumbs/051bef8d2687546ad736fc55807b69a4.png http//lostpic.net/thumbs/1099c62c0f3f3515fabdb3fbbd2f351a.png

http//bt.hqclub.net/files/ok.png Торрент: Законопослушный гражданин / Law Abiding Citizen [Unrated Director's Cut] (2009) 720p BDRip

MediaInfo
General
Complete name : Law.Abiding.Citizen.UDC.2009.BDRip.720p.H264.AC3.-HQCLUB.mkv
Format : Matroska
File size : 7.47 GiB
Duration : 1h 58mn
Overall bit rate : 9 050 Kbps
Movie name : 720p BDRip by DaniLch | HQCLUB.NET
Encoded date : UTC 2011-10-18 09:07:09
Writing application : mkvmerge v5.0.1 ('Es ist Sommer') built on Oct 9 2011 11:55:43
Writing library : libebml v1.2.2 + libmatroska v1.3.0

Video
ID : 1
Format : AVC
Format/Info : Advanced Video Codec
Format profile : High@L4.1
Format settings, CABAC : Yes
Format settings, ReFrames : 11 frames
Codec ID : V_MPEG4/ISO/AVC
Duration : 1h 58mn
Bit rate : 6 502 Kbps
Width : 1 280 pixels
Height : 534 pixels
Display aspect ratio : 2.35:1
Frame rate : 23.976 fps
Color space : YUV
Chroma subsampling : 4:2:0
Bit depth : 8 bits
Scan type : Progressive
Bits/(Pixel*Frame) : 0.397
Stream size : 5.36 GiB (72%)
Title : Law Abiding Citizen [Unrated Director's Cut] (2009) 720p BDRip
Writing library : x264 core 116 r2074 2641b9e
Encoding settings : cabac=1 / ref=11 / deblock=1:-3:-3 / analyse=0x3:0x113 / me=umh / subme=10 / psy=1 / psy_rd=1.20:0.15 / mixed_ref=1 / me_range=32 / chroma_me=1 / trellis=2 / 8x8dct=1 / cqm=0 / deadzone=21,11 / fast_pskip=0 / chroma_qp_offset=0 / threads=6 / sliced_threads=0 / nr=0 / decimate=1 / interlaced=0 / bluray_compat=0 / constrained_intra=0 / bframes=6 / b_pyramid=2 / b_adapt=2 / b_bias=0 / direct=3 / weightb=1 / open_gop=0 / weightp=2 / keyint=250 / keyint_min=23 / scenecut=40 / intra_refresh=0 / rc_lookahead=40 / rc=crf / mbtree=0 / crf=16.4 / qcomp=0.60 / qpmin=10 / qpmax=51 / qpstep=4 / vbv_maxrate=50000 / vbv_bufsize=62500 / crf_max=0.0 / nal_hrd=none / ip_ratio=1.40 / pb_ratio=1.30 / aq=1:0.70
Language : English

Audio #1
ID : 2
Format : AC-3
Format/Info : Audio Coding 3
Mode extension : CM (complete main)
Codec ID : A_AC3
Duration : 1h 58mn
Bit rate mode : Constant
Bit rate : 448 Kbps
Channel(s) : 6 channels
Channel positions : Front: L C R, Side: L R, LFE
Sampling rate : 48.0 KHz
Bit depth : 16 bits
Compression mode : Lossy
Stream size : 378 MiB (5%)
Title : AC3 5.1 @ 448 kbps - Многоголосый закадровый, Киномания
Language : Russian

Audio #2
ID : 3
Format : AC-3
Format/Info : Audio Coding 3
Mode extension : CM (complete main)
Codec ID : A_AC3
Duration : 1h 58mn
Bit rate mode : Constant
Bit rate : 448 Kbps
Channel(s) : 6 channels
Channel positions : Front: L C R, Side: L R, LFE
Sampling rate : 48.0 KHz
Bit depth : 16 bits
Compression mode : Lossy
Stream size : 378 MiB (5%)
Title : AC3 5.1 @ 448 kbps - Одноголосый закадровый, Ю.Сербин
Language : Russian

Audio #3
ID : 4
Format : AC-3
Format/Info : Audio Coding 3
Mode extension : CM (complete main)
Codec ID : A_AC3
Duration : 1h 58mn
Bit rate mode : Constant
Bit rate : 448 Kbps
Channel(s) : 6 channels
Channel positions : Front: L C R, Side: L R, LFE
Sampling rate : 48.0 KHz
Bit depth : 16 bits
Compression mode : Lossy
Stream size : 378 MiB (5%)
Title : AC3 5.1 @ 448 kbps - Одноголосый закадровый, А.Гаврилов
Language : Russian

Audio #4
ID : 5
Format : AC-3
Format/Info : Audio Coding 3
Mode extension : CM (complete main)
Codec ID : A_AC3
Duration : 1h 58mn
Bit rate mode : Constant
Bit rate : 384 Kbps
Channel(s) : 6 channels
Channel positions : Front: L C R, Side: L R, LFE
Sampling rate : 48.0 KHz
Bit depth : 16 bits
Compression mode : Lossy
Stream size : 324 MiB (4%)
Title : AC3 5.1 @ 448 kbps - Одноголосый закадровый, В.Замез (zamez)
Language : Russian

Audio #5
ID : 6
Format : AC-3
Format/Info : Audio Coding 3
Mode extension : CM (complete main)
Codec ID : A_AC3
Duration : 1h 58mn
Bit rate mode : Constant
Bit rate : 640 Kbps
Channel(s) : 6 channels
Channel positions : Front: L C R, Side: L R, LFE
Sampling rate : 48.0 KHz
Bit depth : 16 bits
Compression mode : Lossy
Stream size : 541 MiB (7%)
Title : AC3 5.1 @ 640 kbps
Language : English

Text #1
ID : 7
Format : UTF-8
Codec ID : S_TEXT/UTF8
Codec ID/Info : UTF-8 Plain Text
Language : Russian

Text #2
ID : 8
Format : UTF-8
Codec ID : S_TEXT/UTF8
Codec ID/Info : UTF-8 Plain Text
Language : English

Menu
00:00:00.000 : en:00:00:00.000
00:03:51.898 : en:00:03:51.898
00:11:57.466 : en:00:11:57.466
00:20:41.740 : en:00:20:41.740
00:29:01.239 : en:00:29:01.239
00:39:48.094 : en:00:39:48.094
00:43:34.528 : en:00:43:34.528
00:50:00.914 : en:00:50:00.914
00:58:59.827 : en:00:58:59.827
01:07:36.802 : en:01:07:36.802
01:16:41.388 : en:01:16:41.388
01:23:25.917 : en:01:23:25.917
01:29:52.220 : en:01:29:52.220
01:37:04.944 : en:01:37:04.944
01:42:41.238 : en:01:42:41.238
01:50:46.848 : en:01:50:46.848


Лучшая онлайн игра!


Публикация материалов сайта на сторонних ресурсах возможна только в неизменном виде.


Обсудить релиз на форуме

Вас также может заинтересовать:


  • 3
 (Голосов: 11)


Распечатать новость на принтере Триллер, Криминал, Драма

КОММЕНТАРИИ

 №1. Marshall Mathers

Статус: Кинокритик | Новостей: 0 | Комментариев: 468
Marshall Mathers Классный фильм. Сюжет отличный. Даже не мог представить с самого начала, как Клайд умудрялся проворачивать свои делишки сидя в камере )
~~~

19.10.2011 - 15:16   цитировать