Вас Приветствует Релиз-группа HQCLUB


Помощь ресурсу, очень ВАЖНО!!!



.


WELCOME
Добро пожаловать в наше интернет - сообщество!

Всех нас объединяет одна страсть - страсть к высококачественному кино. А это наш сайт. Ежедневно здесь мы публикуем десятки качественных, свежих, а порой и эксклюзивных релизов, которые Вы можете скачать совершенно бесплатно и без каких-либо регистраций. Посему рекомендуем Вам добавить HQClub себе в закладки, а также подписаться на нашу ленту новостей, чтобы всегда быть в курсе всех событий. Ну а если Вы такой же синий фил, как и мы, то милости просим на наш форум. И в заключение, попробуйте зарегистрироваться, ведь не так это и сложно и займет всего лишь пару минут! Вот увидите, Вам у нас понравится и Вы вольетесь в наш дружный коллектив! Ну а пока - осматривайтесь = )
Мы рады Вам !





Без компромиссов / Blitz (2011) 720p BDRip

Оформил: DaniLch | 19 октября 2011 - 22:57:33 | Обращений: 2208 {bookmarks_news}

http//lostpic.net/images/23c83889f41ef9e5c5b8bfc415586b1e.png

Название: Без компромиссов
Оригинальное название: Blitz
Год выхода: 2011
Жанр: триллер, криминал
Режиссер: Эллиотт Лестер / Elliott Lester
В ролях: Джейсон Стэтхэм, Люк Эванс, Эйден Гиллен, Зэйв Эштон, Пэдди Консидайн, Кристина Коул, Дэвид Моррисси, Рон Донаки, Джозеф Демпси, Марк Райлэнс

О фильме: Семь или восемь? Не в граммах, а в полицейских!.. Именно этим вопросом задается лондонский маньяк, решивший прославиться. Выбрав себе для первых полос таблоидов звучный псевдоним Блиц и вооружившись молотком, Барри Вайс выходит на улицы. И теперь главному герою придется спасать свою шкуру и пытаться остановить сумасшедшего убийцу…

http//www.kinopoisk.ru/rating/464020.gif

Релиз от - http//hqclub.net/images/hqclub.png
Автор релиза: DaniLch

Выпущено: http//lostpic.net/images/9d9b54eb1fcd306b79f4368fc78a.gif Великобритания | Lionsgate
Продолжительность: 01:37:00

Рип от HiDt

Контейнер: MKV
Видео: 1280x544 (2.35:1), 24.000 fps, x264@L4.1, 2pass, ~5801 kbps
Аудио #1: Russian: 48 kHz, AC3 Dolby Digital, 3/2 (L,C,R,l,r) + LFE ch, ~448 kbps |Дубляж, DVD R5|
Аудио #2: English: 48 kHz, AC3 Dolby Digital, 3/2 (L,C,R,l,r) + LFE ch, ~640 kbps
Субтитры: русские (subs.com.ru: сленг и матерок), английские
Размер: 4.67 Gb

http//lostpic.net/thumbs/aa155a9ebb9683ffe81ad8d021638b.png http//lostpic.net/thumbs/bf0714b23801e7a15b95c7068cce.png http//lostpic.net/thumbs/cac26189b959912878b5e6e6293d4776.png http//lostpic.net/thumbs/79c7f6d6dd1e5bf2689e41bfbbf123.png

http//bt.hqclub.net/files/ok.png Торрент: Без компромиссов / Blitz (2011) 720p BDRip

MediaInfo
General
Complete name : Blitz.2011.BDRip.720p.H264.AC3.-HQCLUB.mkv
Format : Matroska
File size : 4.67 GiB
Duration : 1h 37mn
Overall bit rate : 6 893 Kbps
Movie name : 720p BDRip by HiDt
Encoded date : UTC 2011-10-19 18:10:36
Writing application : mkvmerge v5.0.1 ('Es ist Sommer') built on Oct 9 2011 11:55:43
Writing library : libebml v1.2.2 + libmatroska v1.3.0

Video
ID : 1
Format : AVC
Format/Info : Advanced Video Codec
Format profile : High@L4.1
Format settings, CABAC : Yes
Format settings, ReFrames : 12 frames
Codec ID : V_MPEG4/ISO/AVC
Duration : 1h 37mn
Bit rate : 5 801 Kbps
Width : 1 280 pixels
Height : 544 pixels
Display aspect ratio : 2.35:1
Frame rate : 24.000 fps
Color space : YUV
Chroma subsampling : 4:2:0
Bit depth : 8 bits
Scan type : Progressive
Bits/(Pixel*Frame) : 0.347
Stream size : 3.84 GiB (82%)
Title : Blitz (2011) 720p BDRip
Writing library : x264 core 116 r2044 392e762
Encoding settings : cabac=1 / ref=12 / deblock=1:-2:-2 / analyse=0x3:0x113 / me=tesa / subme=11 / psy=1 / psy_rd=1.05:0.00 / mixed_ref=1 / me_range=40 / chroma_me=1 / trellis=2 / 8x8dct=1 / cqm=0 / deadzone=21,11 / fast_pskip=0 / chroma_qp_offset=-2 / threads=12 / sliced_threads=0 / nr=0 / decimate=1 / interlaced=0 / bluray_compat=0 / constrained_intra=0 / bframes=6 / b_pyramid=2 / b_adapt=2 / b_bias=0 / direct=3 / weightb=0 / open_gop=0 / weightp=2 / keyint=250 / keyint_min=24 / scenecut=40 / intra_refresh=0 / rc_lookahead=120 / rc=2pass / mbtree=1 / bitrate=5801 / ratetol=1.0 / qcomp=0.60 / qpmin=0 / qpmax=69 / qpstep=4 / cplxblur=20.0 / qblur=0.5 / vbv_maxrate=48000 / vbv_bufsize=45000 / nal_hrd=none / ip_ratio=1.40 / aq=1:0.90
Language : English

Audio #1
ID : 2
Format : AC-3
Format/Info : Audio Coding 3
Mode extension : CM (complete main)
Codec ID : A_AC3
Duration : 1h 37mn
Bit rate mode : Constant
Bit rate : 448 Kbps
Channel(s) : 6 channels
Channel positions : Front: L C R, Side: L R, LFE
Sampling rate : 48.0 KHz
Bit depth : 16 bits
Compression mode : Lossy
Stream size : 311 MiB (6%)
Title : AC3 5.1 @ 448 kbps - Дубляж, DVD R5
Language : Russian

Audio #2
ID : 3
Format : AC-3
Format/Info : Audio Coding 3
Mode extension : CM (complete main)
Codec ID : A_AC3
Duration : 1h 37mn
Bit rate mode : Constant
Bit rate : 640 Kbps
Channel(s) : 6 channels
Channel positions : Front: L C R, Side: L R, LFE
Sampling rate : 48.0 KHz
Bit depth : 16 bits
Compression mode : Lossy
Stream size : 444 MiB (9%)
Title : AC3 5.1 @ 640 kbps
Language : English

Text #1
ID : 4
Format : UTF-8
Codec ID : S_TEXT/UTF8
Codec ID/Info : UTF-8 Plain Text
Language : Russian

Text #2
ID : 5
Format : UTF-8
Codec ID : S_TEXT/UTF8
Codec ID/Info : UTF-8 Plain Text
Language : English

Menu
00:00:00.000 : en:Chapter 01
00:06:38.500 : en:Chapter 02
00:15:10.416 : en:Chapter 03
00:23:06.333 : en:Chapter 04
00:29:14.291 : en:Chapter 05
00:38:36.416 : en:Chapter 06
00:45:27.958 : en:Chapter 07
00:52:15.666 : en:Chapter 08
01:00:46.583 : en:Chapter 09
01:08:06.875 : en:Chapter 10
01:16:12.541 : en:Chapter 11
01:22:30.958 : en:Chapter 12


Лучшая онлайн игра!


Публикация материалов сайта на сторонних ресурсах возможна только в неизменном виде.


Обсудить релиз на форуме

Вас также может заинтересовать:


  • 2
 (Голосов: 11)


Распечатать новость на принтере Триллер, Криминал
Обновлено: 21.10.2011 - 21:24