Вас Приветствует Релиз-группа HQCLUB


Помощь ресурсу, очень ВАЖНО!!!



.


WELCOME
Добро пожаловать в наше интернет - сообщество!

Всех нас объединяет одна страсть - страсть к высококачественному кино. А это наш сайт. Ежедневно здесь мы публикуем десятки качественных, свежих, а порой и эксклюзивных релизов, которые Вы можете скачать совершенно бесплатно и без каких-либо регистраций. Посему рекомендуем Вам добавить HQClub себе в закладки, а также подписаться на нашу ленту новостей, чтобы всегда быть в курсе всех событий. Ну а если Вы такой же синий фил, как и мы, то милости просим на наш форум. И в заключение, попробуйте зарегистрироваться, ведь не так это и сложно и займет всего лишь пару минут! Вот увидите, Вам у нас понравится и Вы вольетесь в наш дружный коллектив! Ну а пока - осматривайтесь = )
Мы рады Вам !





Код Да Винчи / The Da Vinci Code [Расширенная версия / Extended Cut] (2006) BDRip-AVC

Оформил: Sky™ | 28 августа 2013 - 10:50:50 | Комментариев: 3 | Обращений: 2127 {bookmarks_news}

http//lostpic.net/orig_images/7/0/b/70b18dbe38526c3a88e87b6f6689722e.jpg

Информация о фильме:
Название: Код Да Винчи
Оригинальное название: The Da Vinci Code
Год выхода: 2006
Жанр: триллер, детектив
Режиссер: Рон Ховард
В ролях: Том Хэнкс, Одри Тоту, Иэн МакКеллен, Жан Рено, Пол Беттани, Альфред Молина, Юрген Прохнов, Жан-Ив Бертелут, Этьен Шико, Жан-Пьер Марьель, Мари-Франсуа Одоллент, Рита Дейвис

О фильме: Гарвардского профессора Роберта Лэнгдона подозревают в чудовищном преступлении, которого он не совершал. Лэнгдон знакомится с криптографом парижской полиции Софи Невё и вместе с ней пытается раскрыть тайну, которая может подорвать могущество католической церкви.
Роберт и Софи должны это сделать до того, как их схватят блюстители закона или остановят противники, готовые на все ради сохранения великого религиозного секрета...

http//rating.kinopoisk.ru/77711.gif http//lostpic.net/orig_images/4/6/d/46d647c955339e4126958ba1c3cec1.gif

Релиз от - http//hqclub.net/images/hqclub.png
Автор рипа: Sky™

Выпущено: США, Мальта, Франция, Великобритания
Продолжительность: 2:54:37
Перевод: Профессиональный (полное дублирование) [+ многоголосый закадровый на расширенные моменты] + Оригинальная звуковая дорожка
Субтитры: Русские (2 варианта, комментарии), Английские, Украинские (*.srt, отключаемые)
Сохранены оригинальные чаптеры как на Blu-ray.

отдельно, http
Профессиональный (многоголосый, закадровый) BD CEE
Профессиональный (многоголосый, закадровый) Киномания
Авторский (двуголосый, закадровый) П.Гланц и И.Королёва
Авторский (одноголосый, закадровый) А.Гаврилов

Файл:
Формат: mkv
Качество: BDRip-AVC (источник: http//lostpic.net/images/22eefe6b76ddac5300f588214ee6f381.gif / Blu-Ray Remux / 1080p)
Видео: 1024x426 (2.40:1), 23,976 fps, X264@L4.1 ~2674 kbps avg, 0.256 bit/pixel
Аудио #1: 48 kHz, AC3 Dolby Digital, 3/2 (L,C,R,l,r) + LFE ch, ~448 kbps avg (RUS) DUB + MVO
Аудио #2: 48 kHz, AC3 Dolby Digital, 3/2 (L,C,R,l,r) + LFE ch, ~448 kbps avg (ENG)
Аудио #3: 48 kHz, AC3 Dolby Digital, 3/2 (L,C,R,l,r) + LFE ch, ~448 kbps avg (RUS) MVO BD CEE, http
Аудио #4: 48 kHz, AC3 Dolby Digital, 3/2 (L,C,R,l,r) + LFE ch, ~384 kbps avg (RUS) MVO Киномания, http
Аудио #5: 48 kHz, AC3 Dolby Digital, 3/2 (L,C,R,l,r) + LFE ch, ~448 kbps avg (RUS) DVO П.Гланц и И.Королёва, http
Аудио #6: 48 kHz, AC3 Dolby Digital, 3/2 (L,C,R,l,r) + LFE ch, ~448 kbps avg (RUS) AVO А.Гаврилов, http

Размер: 4460.10 Mb
http//lostpic.net/images/1b899dddff9c84e7020a856612f5c646.png

http//lostpic.net/thumbs_images/a/d/3/ad3701ebe787ac59e59c44e62ee16511.png http//lostpic.net/thumbs_images/2/4/8/2366e5e7c931227bec0d22b1426538.png http//lostpic.net/thumbs_images/a/c/c/acc12b6123a55c7c86993bbfc01254b0.png http//lostpic.net/thumbs_images/0/8/1/08133855b0a0d2d586fc2abfbd201e12.png http//lostpic.net/thumbs_images/6/2/6/6269bce6c97ac504cf1fade5a05cf6f5.png

MediaINFO
[HTML]Полное имя : Kod.Da.Vinchi.EC.2006.BDRip-AVC.h264.ac3.-HQCLUB\Kod.Da.Vinchi.EC.2006.BDRip-AVC.h264.ac3.-HQCLUB.mkv
Формат : Matroska
Версия формата : Version 2
Размер файла : 4,36 Гбайт
Продолжительность : 2 ч. 54 м.
Общий поток : 3571 Кбит/сек
Дата кодирования : UTC 2013-08-27 17:26:40
Программа кодирования : mkvmerge v5.2.1 ('A Far Off Place') built on Jan 2 2012 23:21:10
Библиотека кодирования : libebml v1.2.3 + libmatroska v1.3.0

Видео
Идентификатор : 1
Формат : AVC
Формат/Информация : Advanced Video Codec
Профиль формата : High@L4.1
Параметр CABAC формата : Да
Параметр ReFrames формата : 4 кадра
Идентификатор кодека : V_MPEG4/ISO/AVC
Продолжительность : 2 ч. 54 м.
Битрейт : 2674 Кбит/сек
Ширина : 1024 пикселя
Высота : 426 пикселей
Соотношение сторон : 2,40:1
Частота кадров : 23,976 кадра/сек
Цветовое пространство : YUV
Субдискретизация насыщенности : 4:2:0
Битовая глубина : 8 бит
Тип развёртки : Прогрессивная
Бит/(Пиксели*Кадры) : 0.256
Размер потока : 3,18 Гбайт (73%)
Заголовок : Код Да Винчи / The Da Vinci Code [Extended Cut] (2006) BDRip-AVC | HQCLUB
Библиотека кодирования : x264 core 120 r2146 bcd41db
Настройки программы : cabac=1 / ref=4 / deblock=1:-2:-3 / analyse=0x3:0x113 / me=umh / subme=11 / psy=1 / psy_rd=1.00:0.00 / mixed_ref=1 / me_range=48 / chroma_me=1 / trellis=2 / 8x8dct=1 / cqm=0 / deadzone=21,11 / fast_pskip=0 / chroma_qp_offset=-4 / threads=12 / sliced_threads=0 / nr=0 / decimate=1 / interlaced=0 / bluray_compat=0 / constrained_intra=0 / bframes=9 / b_pyramid=2 / b_adapt=2 / b_bias=0 / direct=3 / weightb=1 / open_gop=0 / weightp=2 / keyint=250 / keyint_min=25 / scenecut=40 / intra_refresh=0 / rc_lookahead=40 / rc=2pass / mbtree=0 / bitrate=2674 / ratetol=1.0 / qcomp=0.60 / qpmin=0 / qpmax=69 / qpstep=4 / cplxblur=20.0 / qblur=0.5 / vbv_maxrate=62500 / vbv_bufsize=50000 / nal_hrd=none / ip_ratio=1.40 / pb_ratio=1.30 / aq=1:0.70
Язык : English
Default : Да
Forced : Нет

Аудио #1
Идентификатор : 2
Формат : AC-3
Формат/Информация : Audio Coding 3
Расширение режима : CM (complete main)
Идентификатор кодека : A_AC3
Продолжительность : 2 ч. 54 м.
Вид битрейта : Постоянный
Битрейт : 448 Кбит/сек
Каналы : 6 каналов
Расположение каналов : Front: L C R, Side: L R, LFE
Частота : 48,0 КГц
Битовая глубина : 16 бит
Метод сжатия : С потерями
Размер потока : 560 Мбайт (13%)
Заголовок : Дубляж + многоголоска
Язык : Russian
Default : Да
Forced : Нет

Аудио #2
Идентификатор : 3
Формат : AC-3
Формат/Информация : Audio Coding 3
Расширение режима : CM (complete main)
Идентификатор кодека : A_AC3
Продолжительность : 2 ч. 54 м.
Вид битрейта : Постоянный
Битрейт : 448 Кбит/сек
Каналы : 6 каналов
Расположение каналов : Front: L C R, Side: L R, LFE
Частота : 48,0 КГц
Битовая глубина : 16 бит
Метод сжатия : С потерями
Размер потока : 560 Мбайт (13%)
Заголовок : Оригинал
Язык : English
Default : Нет
Forced : Нет

Текст #1
Идентификатор : 4
Формат : UTF-8
Идентификатор кодека : S_TEXT/UTF8
Идентификатор кодека/Информация : UTF-8 Plain Text
Заголовок : Полные #1
Язык : Russian
Default : Да
Forced : Нет

Текст #2
Идентификатор : 5
Формат : UTF-8
Идентификатор кодека : S_TEXT/UTF8
Идентификатор кодека/Информация : UTF-8 Plain Text
Заголовок : Полные #2
Язык : Russian
Default : Нет
Forced : Нет

Текст #3
Идентификатор : 6
Формат : UTF-8
Идентификатор кодека : S_TEXT/UTF8
Идентификатор кодека/Информация : UTF-8 Plain Text
Заголовок : Комментарии режиссера
Язык : Russian
Default : Нет
Forced : Нет

Текст #4
Идентификатор : 7
Формат : UTF-8
Идентификатор кодека : S_TEXT/UTF8
Идентификатор кодека/Информация : UTF-8 Plain Text
Заголовок : Полные
Язык : English
Default : Нет
Forced : Нет

Текст #5
Идентификатор : 8
Формат : UTF-8
Идентификатор кодека : S_TEXT/UTF8
Идентификатор кодека/Информация : UTF-8 Plain Text
Заголовок : Полные
Язык : Ukrainian
Default : Нет
Forced : Нет

Меню
00:00:00.000 : en:00:00:00.000
00:10:09.233 : en:00:10:09.233
00:17:27.463 : en:00:17:27.463
00:31:01.192 : en:00:31:01.192
00:38:14.417 : en:00:38:14.417
00:52:07.833 : en:00:52:07.833
01:06:43.040 : en:01:06:43.040
01:18:50.392 : en:01:18:50.392
01:27:39.003 : en:01:27:39.003
01:34:35.419 : en:01:34:35.419
01:49:19.302 : en:01:49:19.302
02:01:19.355 : en:02:01:19.355
02:08:03.842 : en:02:08:03.842
02:18:17.664 : en:02:18:17.664
02:29:55.861 : en:02:29:55.861
02:37:31.150 : en:02:37:31.150[/HTML]

x264 log
[HTML]---[NoImage] x264 [info]: frame I:2223 Avg QP:15.14 size: 53950
---[NoImage] x264 [info]: frame P:50902 Avg QP:16.47 size: 21383
---[NoImage] x264 [info]: frame B:198081 Avg QP:17.73 size: 11570
---[NoImage] x264 [info]: consecutive B-frames: 2.5% 2.0% 4.7% 14.6% 16.8% 38.7% 9.8% 4.4% 4.0% 2.4%
---[NoImage] x264 [info]: mb I I16..4: 7.5% 76.3% 16.2%
---[NoImage] x264 [info]: mb P I16..4: 1.1% 9.1% 1.0% P16..4: 28.1% 38.6% 13.7% 0.0% 0.0% skip: 8.5%
---[NoImage] x264 [info]: mb B I16..4: 0.1% 1.3% 0.1% B16..8: 36.0% 25.3% 5.2% direct: 7.5% skip:24.5% L0:41.7% L1:45.3% BI:13.0%
---[NoImage] x264 [info]: 8x8 transform intra:81.9% inter:57.0%
---[NoImage] x264 [info]: direct mvs spatial:97.5% temporal:2.5%
---[NoImage] x264 [info]: coded y,uvDC,uvAC intra: 87.7% 90.1% 80.0% inter: 33.8% 29.3% 13.5%
---[NoImage] x264 [info]: i16 v,h,dc,p: 58% 12% 6% 24%
---[NoImage] x264 [info]: i8 v,h,dc,ddl,ddr,vr,hd,vl,hu: 8% 7% 9% 10% 14% 13% 13% 12% 14%
---[NoImage] x264 [info]: i4 v,h,dc,ddl,ddr,vr,hd,vl,hu: 11% 7% 7% 11% 15% 13% 13% 11% 13%
---[NoImage] x264 [info]: i8c dc,h,v,p: 53% 17% 15% 15%
---[NoImage] x264 [info]: Weighted P-Frames: Y:4.6% UV:2.1%
---[NoImage] x264 [info]: ref P L0: 52.9% 7.8% 26.4% 11.9% 1.0% 0.0%
---[NoImage] x264 [info]: ref B L0: 83.5% 13.6% 2.9%
---[NoImage] x264 [info]: ref B L1: 89.8% 10.2%
---[NoImage] x264 [info]: kb/s:2672.55[/HTML]

Ссылки для скачивания:

http//bt.hqclub.net/files/ok.png Торрент: Код Да Винчи / The Da Vinci Code [Расширенная версия / Extended Cut] (2006) BDRip-AVC

Лучшая онлайн игра!


Публикация материалов сайта на сторонних ресурсах возможна только в неизменном виде.


Обсудить релиз на форуме

Вас также может заинтересовать:


  • 4
 (Голосов: 11)


Распечатать новость на принтере Триллер, Детектив
Обновлено: 28.08.2013 - 18:30

КОММЕНТАРИИ

 №1. gubiniliya

Статус: Любитель | Новостей: 0 | Комментариев: 107
Фильм очень хороший. Имеется в коллекции. Но конечно книга лучше. Советую прочитать книгу.
За труд спасибо.
~~~

29.08.2013 - 01:06   цитировать  

 №2. SerB_777

Статус: Кинокритик | Новостей: 0 | Комментариев: 583
SerB_777 Sky™, БОЛЬШОЕ СПАСИБО за труд!
~~~

31.08.2013 - 02:00   цитировать  

 №3. ru4lan

Статус: Кинокритик | Новостей: 0 | Комментариев: 2736
ru4lan супер книга, супер фильм, да еще и моя любимая актриса
~~~

3.09.2013 - 15:49   цитировать