Вас Приветствует Релиз-группа HQCLUB


Помощь ресурсу, очень ВАЖНО!!!



.


WELCOME
Добро пожаловать в наше интернет - сообщество!

Всех нас объединяет одна страсть - страсть к высококачественному кино. А это наш сайт. Ежедневно здесь мы публикуем десятки качественных, свежих, а порой и эксклюзивных релизов, которые Вы можете скачать совершенно бесплатно и без каких-либо регистраций. Посему рекомендуем Вам добавить HQClub себе в закладки, а также подписаться на нашу ленту новостей, чтобы всегда быть в курсе всех событий. Ну а если Вы такой же синий фил, как и мы, то милости просим на наш форум. И в заключение, попробуйте зарегистрироваться, ведь не так это и сложно и займет всего лишь пару минут! Вот увидите, Вам у нас понравится и Вы вольетесь в наш дружный коллектив! Ну а пока - осматривайтесь = )
Мы рады Вам !





Враг / Enemy (2013) BDRip-AVC

Оформил: Elheym | 27 сентября 2014 - 22:36:45 | Комментариев: 2 | Обращений: 2391 {bookmarks_news}

http//lostpic.net/orig_images/3/a/d/3ad344cf083b897a78c0cdf39dbc8f8c.jpg

Информация о фильме:
Название: Враг
Оригинальное название: Enemy
Год выхода: 2013
Жанр: триллер, детектив
Режиссер: Дени Вильнёв
В ролях: Джейк Джилленхол, Мелани Лоран, Сара Гадон, Изабелла Росселлини, Джошуа Пиис, Тим Пост, Кедар Браун, Дэррил Динн, Миша Хайстэд, Меган Манн

О фильме: Взяв по совету коллеги фильм в прокате, парень с удивлением замечает в одном из эпизодов актёра, который является почти точной его копией, разве что на пару лет моложе. Вскоре желание найти своего двойника превращается для парня в настоящую навязчивую идею. Длительные бесплодные поиски, в конце концов, становятся причиной странных мистических событий, постепенно погружающих парня в пучину наваждения…

«Опасайся встречи с самим собой...»



http//rating.kinopoisk.ru/673910.gif http//tracker.0day.kiev.ua/imdb/imdb_tt2316411.gif

Релиз от - http//hqclub.net/images/hqclub.png
Автор рипа: Elheym

Выпущено: Канада, Испания, Mecanismo Films, micro_scope media, Rhombus Media, Roxbury Pictures
Продолжительность: 01:30:52
Перевод: Профессиональный (полное дублирование), R5 + Авторский (одноголосый, закадровый) Ю. Немахов
Оригинальная аудио дорожка: английский
Субтитры: русские (полные: два вида), английские (полные, полные SDH)
Главы: присутствуют, сохранены оригинальные (подписаны)

Дополнительные аудиодорожки:
+ Профессиональный (многоголосый, закадровый) украинский [Омікрон]
+ Авторский (одноголосый, закадровый) Д. Есарев
+ Любительский (одноголосый, закадровый) А. Матвеев aka Doctor_Joker

Файл:
Формат: MKV
Качество: BDRip-AVC (источник: http//i28.fastpic.ru/big/2011/1013/a8/a3d28e80c9544f4c572189fc892ea8.gif / Blu-ray Remux / 1080p)
Видео: 1140x476 (2.40:1), 23.976 fps, MPEG-4 AVC, ~3012 kbps, 0.231 bit/pixel
Аудио #1: 48 kHz, AC3 Dolby Digital, 3/2 (L,C,R,l,r) + LFE ch, ~448 kbps (DUB.R5)
Аудио #2: 48 kHz, AC3 Dolby Digital, 3/2 (L,C,R,l,r) + LFE ch, ~448 kbps (AVO.NEMAHOV)
Аудио #3: 48 kHz, AC3 Dolby Digital, 3/2 (L,C,R,l,r) + LFE ch, ~448 kbps (ENG)
Аудио #4: 48 kHz, AC3 Dolby Digital, 3/2 (L,C,R,l,r) + LFE ch, ~448 kbps (AVO.ESAREV) (отдельно)
Аудио #5: 48 kHz, AC3 Dolby Digital, 3/2 (L,C,R,l,r) + LFE ch, ~448 kbps (VO.DOCTOR.JOKER) (отдельно)
Аудио #6: 48 kHz, AC3 Dolby Digital, 3/2 (L,C,R,l,r) + LFE ch, ~448 kbps (UKR.MVO.OMIKRON) (отдельно)
Размер: 2.82 GB
Сэмпл: скачать

http//lostpic.net/thumbs_images/d/1/0/d10555ab4b1426c22aeba59c9063de8b.png http//lostpic.net/thumbs_images/0/8/1/0816eb12636993bbda68004a0bdea69b.png http//lostpic.net/thumbs_images/f/b/1/fb1e620d7fa3b8d20e2593171cdb7c.png http//lostpic.net/thumbs_images/6/8/a/68adabb0320e5b63d72fcb2e24a001d7.png http//lostpic.net/thumbs_images/a/8/4/a8453036581cce3ee0a1ed69d6bad5.png http//lostpic.net/thumbs_images/3/2/b/32b621e3e80a7396431ecfa1ed.png

"MediaInfo"

Уникальный идентификатор : 208949265618575738006517166270208100411 (0x9D322A2D235EC399ADEE71F03629483B)
Полное имя : Enemy.2013.TRIPLE.BDRip-AVC.x264.AC3.-HQCLUB.mkv
Формат : Matroska
Версия формата : Version 2
Размер файла : 2,82 Гбайт
Продолжительность : 1 ч. 30 м.
Общий поток : 4444 Кбит/сек
Дата кодирования : UTC 2014-09-27 17:13:26
Программа кодирования : mkvmerge v5.2.0 ('I can't explain') built on Dec 18 2011 18:12:03
Библиотека кодирования : libebml v1.2.3 + libmatroska v1.3.0

Видео
Идентификатор : 1
Формат : AVC
Формат/Информация : Advanced Video Codec
Профиль формата : High@L4.1
Параметр CABAC формата : Да
Параметр ReFrames формата : 12 кадров
Идентификатор кодека : V_MPEG4/ISO/AVC
Продолжительность : 1 ч. 30 м.
Битрейт : 3012 Кбит/сек
Ширина : 1140 пикселей
Высота : 476 пикселей
Соотношение сторон : 2,40:1
Режим частоты кадров : Постоянный
Частота кадров : 23,976 кадра/сек
Цветовое пространство : YUV
Субдискретизация насыщенности : 4:2:0
Битовая глубина : 8 бит
Тип развёртки : Прогрессивная
Бит/(Пиксели*Кадры) : 0.231
Размер потока : 1,91 Гбайт (68%)
Заголовок : Враг / Enemy (2013) BDRip-AVC by HQCLUB [Elheym]
Библиотека кодирования : x264 core 142 r2479 dd79a61
Настройки программы : cabac=1 / ref=12 / deblock=1:-3:-2 / analyse=0x3:0x113 / me=umh / subme=11 / psy=1 / psy_rd=1.00:0.00 / mixed_ref=1 / me_range=32 / chroma_me=1 / trellis=2 / 8x8dct=1 / cqm=0 / deadzone=21,11 / fast_pskip=0 / chroma_qp_offset=-4 / threads=6 / lookahead_threads=1 / sliced_threads=0 / nr=0 / decimate=1 / interlaced=0 / bluray_compat=0 / constrained_intra=0 / bframes=15 / b_pyramid=2 / b_adapt=2 / b_bias=0 / direct=1 / weightb=1 / open_gop=0 / weightp=2 / keyint=240 / keyint_min=23 / scenecut=40 / intra_refresh=0 / rc_lookahead=40 / rc=crf / mbtree=1 / crf=13.4 / qcomp=0.60 / qpmin=0 / qpmax=69 / qpstep=4 / vbv_maxrate=50000 / vbv_bufsize=62500 / crf_max=0.0 / nal_hrd=none / filler=0 / ip_ratio=1.40 / aq=2:0.85
Язык : English
Default : Да
Forced : Нет

Аудио #1
Идентификатор : 2
Формат : AC-3
Формат/Информация : Audio Coding 3
Расширение режима : CM (complete main)
Параметр Endianness формата : Big
Идентификатор кодека : A_AC3
Продолжительность : 1 ч. 30 м.
Вид битрейта : Постоянный
Битрейт : 448 Кбит/сек
Каналы : 6 каналов
Расположение каналов : Front: L C R, Side: L R, LFE
Частота : 48,0 КГц
Битовая глубина : 16 бит
Метод сжатия : С потерями
Размер потока : 291 Мбайт (10%)
Заголовок : АС3 5.1 @ 448 kbps - Dub
Язык : Russian
Default : Нет
Forced : Нет

Аудио #2
Идентификатор : 3
Формат : AC-3
Формат/Информация : Audio Coding 3
Расширение режима : CM (complete main)
Параметр Endianness формата : Big
Идентификатор кодека : A_AC3
Продолжительность : 1 ч. 30 м.
Вид битрейта : Постоянный
Битрейт : 448 Кбит/сек
Каналы : 6 каналов
Расположение каналов : Front: L C R, Side: L R, LFE
Частота : 48,0 КГц
Битовая глубина : 16 бит
Метод сжатия : С потерями
Размер потока : 291 Мбайт (10%)
Заголовок : АС3 5.1 @ 448 kbps - AVO, Namahov
Язык : Russian
Default : Нет
Forced : Нет

Аудио #3
Идентификатор : 4
Формат : AC-3
Формат/Информация : Audio Coding 3
Расширение режима : CM (complete main)
Параметр Endianness формата : Big
Идентификатор кодека : A_AC3
Продолжительность : 1 ч. 30 м.
Вид битрейта : Постоянный
Битрейт : 448 Кбит/сек
Каналы : 6 каналов
Расположение каналов : Front: L C R, Side: L R, LFE
Частота : 48,0 КГц
Битовая глубина : 16 бит
Метод сжатия : С потерями
Размер потока : 291 Мбайт (10%)
Заголовок : АС3 5.1 @ 448 kbps - Original
Язык : English
Default : Нет
Forced : Нет

Текст #1
Идентификатор : 5
Формат : UTF-8
Идентификатор кодека : S_TEXT/UTF8
Идентификатор кодека/Информация : UTF-8 Plain Text
Заголовок : Full v1
Язык : Russian
Default : Нет
Forced : Нет

Текст #2
Идентификатор : 6
Формат : UTF-8
Идентификатор кодека : S_TEXT/UTF8
Идентификатор кодека/Информация : UTF-8 Plain Text
Заголовок : Full v2
Язык : Russian
Default : Нет
Forced : Нет

Текст #3
Идентификатор : 7
Формат : UTF-8
Идентификатор кодека : S_TEXT/UTF8
Идентификатор кодека/Информация : UTF-8 Plain Text
Заголовок : Full
Язык : English
Default : Нет
Forced : Нет

Текст #4
Идентификатор : 8
Формат : UTF-8
Идентификатор кодека : S_TEXT/UTF8
Идентификатор кодека/Информация : UTF-8 Plain Text
Заголовок : Full SDH
Язык : English
Default : Нет
Forced : Нет

Меню
00:00:00.000 : :Chapter 01
00:04:57.587 : :Chapter 02
00:09:20.393 : :Chapter 03
00:15:45.778 : :Chapter 04
00:26:24.708 : :Chapter 05
00:30:58.565 : :Chapter 06
00:35:43.599 : :Chapter 07
00:42:11.779 : :Chapter 08
00:48:55.681 : :Chapter 09
00:52:51.042 : :Chapter 10
00:55:15.979 : :Chapter 11
00:59:19.639 : :Chapter 12
01:06:33.072 : :Chapter 13
01:10:08.579 : :Chapter 14
01:15:10.881 : :Chapter 15
01:23:17.325 : :Chapter 16
01:30:52.238 : :Chapter 17

"x264 log"

x264 [info]: frame I:751 Avg QP:10.19 size:124021
x264 [info]: frame P:23751 Avg QP:13.63 size: 41904
x264 [info]: frame B:106227 Avg QP:17.08 size: 9634

x264 [info]: consecutive B-frames: 0.9% 0.9% 4.2% 10.1% 15.0% 50.2% 7.4% 1.9% 2.1% 0.9% 1.5% 1.1% 1.3% 0.9% 0.7% 1.1%

x264 [info]: ref P L0: 42.0% 7.3% 19.1% 7.7% 6.4% 4.4% 4.0% 2.1% 2.1% 1.6% 1.7% 1.4% 0.1% 0.0%
x264 [info]: ref B L0: 67.8% 13.8% 6.6% 3.4% 2.4% 2.0% 1.5% 1.0% 0.8% 0.5% 0.2%
x264 [info]: ref B L1: 90.9% 9.1%


Ссылки для скачивания:

http//bt.hqclub.net/files/ok.png Торрент: Враг / Enemy (2013) BDRip-AVC

Лучшая онлайн игра!


Публикация материалов сайта на сторонних ресурсах возможна только в неизменном виде.


Обсудить релиз на форуме

Вас также может заинтересовать:


  • 5
 (Голосов: 2)


Распечатать новость на принтере Триллер, Детектив

КОММЕНТАРИИ

 №1. ru4lan

Статус: Кинокритик | Новостей: 0 | Комментариев: 2736
ru4lan беру
~~~

28.09.2014 - 13:12   цитировать  

 №2. кит

Статус: Кинокритик | Новостей: 0 | Комментариев: 336
кит Такая хрень at at at
~~~

28.09.2014 - 19:13   цитировать