Вас Приветствует Релиз-группа HQCLUB


Помощь ресурсу, очень ВАЖНО!!!



.


WELCOME
Добро пожаловать в наше интернет - сообщество!

Всех нас объединяет одна страсть - страсть к высококачественному кино. А это наш сайт. Ежедневно здесь мы публикуем десятки качественных, свежих, а порой и эксклюзивных релизов, которые Вы можете скачать совершенно бесплатно и без каких-либо регистраций. Посему рекомендуем Вам добавить HQClub себе в закладки, а также подписаться на нашу ленту новостей, чтобы всегда быть в курсе всех событий. Ну а если Вы такой же синий фил, как и мы, то милости просим на наш форум. И в заключение, попробуйте зарегистрироваться, ведь не так это и сложно и займет всего лишь пару минут! Вот увидите, Вам у нас понравится и Вы вольетесь в наш дружный коллектив! Ну а пока - осматривайтесь = )
Мы рады Вам !





Патруль / End of Watch [US-Transfer] (2012) BDRip 720p

Оформил: Sky™ | 20 января 2013 - 21:59:05 | Обращений: 1368 {bookmarks_news}

http//lostpic.net/images/4d963d516db67ea2240d8398e07eb3af.png

Информация о фильме:
Название: Патруль
Оригинальное название: End of Watch
Год выхода: 2012
Жанр: триллер, драма, криминал
Режиссер: Дэвид Эйр
В ролях: Джейк Джилленхол, Майкл Пенья, Анна Кендрик, Натали Мартинез, Америка Феррера, Фрэнк Грилло, Дэвид Харбор, Кле Шахид Слоун, Джейм Фицсаймонс, Коуди Хорн

О фильме: Они были лучшими копами Лос-Анджелеса. Бесстрашные и везучие напарники, они стали друг другу как братья. Но однажды парни залезли в самое логово преступного мира города, по-глупому подставились и сами стали мишенью… Кто успеет первым разрядить обойму?

«Где правит адреналин, нет места для страха»



http//lostpic.net/images/03631c58a1e1f932e40679f696459e5a.gif http//www.kinopoisk.ru/rating/584405.gif

Релиз от - http//hqclub.net/images/hqclub.png
Автор рипа: Sky™

Выпущено: США (Exclusive Media Group...)
Продолжительность: 01:49:17
Перевод: Профессиональный (полное дублирование) BD RUS + Любительский (одноголосый, закадровый) В. Замез + Оригинальная звуковая дорожка (Английская)
Субтитры: Русские, Английские (*.srt, отключаемые)
Сохранены оригинальные чаптеры как на Blu-ray.

Файл:
Формат: mkv
Качество: BDRip 720p (источник: http//lostpic.net/images/9c91306e9cffafb1a5062eee37d4276c.png / Blu-Ray Disc / 1080p)
Видео: 1280x694 (1.85:1), 23.976 fps, X264@L4.1 ~6137 kbps avg, 0.288 bit/pixel
Аудио #1: 48 kHz, AC3 Dolby Digital, 3/2 (L,C,R,l,r) + LFE ch, ~640 kbps avg (RUS) BD RUS
Аудио #2: 48 kHz, AC3 Dolby Digital, 3/2 (L,C,R,l,r) + LFE ch, ~448 kbps avg (RUS) В. Замез
Аудио #3: 48 kHz, AC3 Dolby Digital, 3/2 (L,C,R,l,r) + LFE ch, ~640 kbps avg (ENG)
Размер: 6272.19 Mb
http//lostpic.net/images/1b899dddff9c84e7020a856612f5c646.png

http//lostpic.net/thumbs/7a11c63434bae094eb1eee809be401a8.png http//lostpic.net/thumbs/cba92dd518008a4756645e4e933a4d21.png http//lostpic.net/thumbs/9caba71b02c9c102866d5bcfef93dc56.png http//lostpic.net/thumbs/9f2374f87b13d2658d2e8fe7e7bc402d.png http//lostpic.net/thumbs/f5079ff0b03adc80a0f88e03a43d13.png http//lostpic.net/thumbs/22ab1acdb15eb3a33442dc1d0b23846a.png http//lostpic.net/thumbs/6168b3564a4fde31384055e501995f4b.png

MediaINFO
[HTML]Полное имя : Patrul.2012.US.BDRip.720p.x264.AC3.-HQCLUB.mkv
Формат : Matroska
Версия формата : Version 2
Размер файла : 6,13 Гбайт
Продолжительность : 1 ч. 49 м.
Общий поток : 8025 Кбит/сек
Дата кодирования : UTC 2013-01-20 16:30:57
Программа кодирования : mkvmerge v5.7.0 ('The Whirlwind') built on Jul 8 2012 20:08:51
Библиотека кодирования : libebml v1.2.3 + libmatroska v1.3.0

Видео
Идентификатор : 1
Формат : AVC
Формат/Информация : Advanced Video Codec
Профиль формата : High@L4.1
Параметр CABAC формата : Да
Параметр ReFrames формата : 6 кадров
Идентификатор кодека : V_MPEG4/ISO/AVC
Продолжительность : 1 ч. 49 м.
Битрейт : 6137 Кбит/сек
Ширина : 1280 пикселей
Высота : 694 пикселя
Соотношение сторон : 1,85:1
Режим частоты кадров : Постоянный
Частота кадров : 23,976 кадра/сек
Цветовое пространство : YUV
Субдискретизация насыщенности : 4:2:0
Битовая глубина : 8 бит
Тип развёртки : Прогрессивная
Бит/(Пиксели*Кадры) : 0.288
Размер потока : 4,68 Гбайт (76%)
Заголовок : Патруль / End of Watch [US Transfer] (2012) BDRip 720p | HQCLUB
Библиотека кодирования : x264 core 120 r2146 bcd41db
Настройки программы : cabac=1 / ref=6 / deblock=1:-3:-2 / analyse=0x3:0x113 / me=umh / subme=9 / psy=1 / psy_rd=1.00:0.02 / mixed_ref=1 / me_range=48 / chroma_me=1 / trellis=1 / 8x8dct=1 / cqm=0 / deadzone=21,11 / fast_pskip=1 / chroma_qp_offset=-5 / threads=12 / sliced_threads=0 / nr=0 / decimate=1 / interlaced=0 / bluray_compat=0 / constrained_intra=0 / bframes=9 / b_pyramid=2 / b_adapt=2 / b_bias=0 / direct=1 / weightb=1 / open_gop=0 / weightp=2 / keyint=240 / keyint_min=24 / scenecut=40 / intra_refresh=0 / rc=cqp / mbtree=0 / qp=17 / ip_ratio=1.40 / pb_ratio=1.30 / aq=0
Язык : English
Default : Да
Forced : Нет

Аудио #1
Идентификатор : 2
Формат : AC-3
Формат/Информация : Audio Coding 3
Расширение режима : CM (complete main)
Параметр Endianness формата : Big
Идентификатор кодека : A_AC3
Продолжительность : 1 ч. 49 м.
Вид битрейта : Постоянный
Битрейт : 640 Кбит/сек
Каналы : 6 каналов
Расположение каналов : Front: L C R, Side: L R, LFE
Частота : 48,0 КГц
Битовая глубина : 16 бит
Метод сжатия : С потерями
Размер потока : 500 Мбайт (8%)
Заголовок : Дубляж (BD RUS) AC3 5.1 @ 640 kbps
Язык : Russian
Default : Да
Forced : Нет

Аудио #2
Идентификатор : 3
Формат : AC-3
Формат/Информация : Audio Coding 3
Расширение режима : CM (complete main)
Параметр Endianness формата : Big
Идентификатор кодека : A_AC3
Продолжительность : 1 ч. 49 м.
Вид битрейта : Постоянный
Битрейт : 448 Кбит/сек
Каналы : 6 каналов
Расположение каналов : Front: L C R, Side: L R, LFE
Частота : 48,0 КГц
Битовая глубина : 16 бит
Метод сжатия : С потерями
Размер потока : 350 Мбайт (6%)
Заголовок : Любительский (В. Замез) AC3 5.1 @ 448 kbps
Язык : Russian
Default : Нет
Forced : Нет

Аудио #3
Идентификатор : 4
Формат : AC-3
Формат/Информация : Audio Coding 3
Расширение режима : CM (complete main)
Параметр Endianness формата : Big
Идентификатор кодека : A_AC3
Продолжительность : 1 ч. 49 м.
Вид битрейта : Постоянный
Битрейт : 640 Кбит/сек
Каналы : 6 каналов
Расположение каналов : Front: L C R, Side: L R, LFE
Частота : 48,0 КГц
Битовая глубина : 16 бит
Метод сжатия : С потерями
Размер потока : 500 Мбайт (8%)
Заголовок : Оригинал AC3 5.1 @ 640 kbps
Язык : English
Default : Нет
Forced : Нет

Текст #1
Идентификатор : 5
Формат : UTF-8
Идентификатор кодека : S_TEXT/UTF8
Идентификатор кодека/Информация : UTF-8 Plain Text
Заголовок : Full
Язык : Russian
Default : Да
Forced : Нет

Текст #2
Идентификатор : 6
Формат : UTF-8
Идентификатор кодека : S_TEXT/UTF8
Идентификатор кодека/Информация : UTF-8 Plain Text
Заголовок : Full
Язык : English
Default : Нет
Forced : Нет

Меню
00:00:00.000 : en:Chapter 1
00:03:15.041 : en:Chapter 2
00:10:19.750 : en:Chapter 3
00:16:57.333 : en:Chapter 4
00:24:11.708 : en:Chapter 5
00:31:45.125 : en:Chapter 6
00:35:55.291 : en:Chapter 7
00:42:17.625 : en:Chapter 8
00:49:03.583 : en:Chapter 9
00:55:37.791 : en:Chapter 10
00:59:27.750 : en:Chapter 11
01:04:02.625 : en:Chapter 12
01:11:00.958 : en:Chapter 13
01:17:28.875 : en:Chapter 14
01:23:02.875 : en:Chapter 15
01:30:03.041 : en:Chapter 16
01:35:19.250 : en:Chapter 17
01:39:05.833 : en:Chapter 18[/HTML]

x264 log
[HTML]---[NoImage] x264 [info]: frame I:1117 Avg QP:14.00 size:149114
---[NoImage] x264 [info]: frame P:39518 Avg QP:17.00 size: 55239
---[NoImage] x264 [info]: frame B:116564 Avg QP:18.74 size: 24101
---[NoImage] x264 [info]: consecutive B-frames: 4.1% 4.7% 14.3% 19.9% 16.8% 31.6% 3.4% 1.2% 3.5% 0.6%
---[NoImage] x264 [info]: mb I I16..4: 13.1% 71.9% 15.0%
---[NoImage] x264 [info]: mb P I16..4: 2.9% 15.7% 2.4% P16..4: 37.5% 18.6% 15.6% 0.0% 0.0% skip: 7.3%
---[NoImage] x264 [info]: mb B I16..4: 0.2% 1.9% 0.4% B16..8: 38.8% 13.1% 4.3% direct: 8.6% skip:32.6% L0:42.2% L1:42.8% BI:14.9%
---[NoImage] x264 [info]: 8x8 transform intra:74.8% inter:69.6%
---[NoImage] x264 [info]: coded y,uvDC,uvAC intra: 85.8% 94.6% 88.0% inter: 33.4% 49.4% 23.8%
---[NoImage] x264 [info]: i16 v,h,dc,p: 24% 14% 10% 52%
---[NoImage] x264 [info]: i8 v,h,dc,ddl,ddr,vr,hd,vl,hu: 11% 8% 3% 11% 15% 14% 15% 11% 12%
---[NoImage] x264 [info]: i4 v,h,dc,ddl,ddr,vr,hd,vl,hu: 11% 7% 2% 10% 16% 14% 15% 11% 13%
---[NoImage] x264 [info]: i8c dc,h,v,p: 56% 16% 14% 14%
---[NoImage] x264 [info]: Weighted P-Frames: Y:19.8% UV:13.9%
---[NoImage] x264 [info]: ref P L0: 47.3% 9.2% 20.9% 8.2% 7.0% 5.4% 1.8% 0.2%
---[NoImage] x264 [info]: ref B L0: 75.3% 14.5% 6.7% 2.6% 1.0%
---[NoImage] x264 [info]: ref B L1: 92.8% 7.2%[/HTML]

Ссылки для скачивания:

http//bt.hqclub.net/files/ok.png Торрент: Патруль / End of Watch [US-Transfer] (2012) BDRip 720p

Лучшая онлайн игра!


Публикация материалов сайта на сторонних ресурсах возможна только в неизменном виде.


Обсудить релиз на форуме

Вас также может заинтересовать:


  • 4
 (Голосов: 9)


Распечатать новость на принтере Триллер, Драма, Криминал
Обновлено: 23.01.2013 - 16:53