Вас Приветствует Релиз-группа HQCLUB


Помощь ресурсу, очень ВАЖНО!!!



.


WELCOME
Добро пожаловать в наше интернет - сообщество!

Всех нас объединяет одна страсть - страсть к высококачественному кино. А это наш сайт. Ежедневно здесь мы публикуем десятки качественных, свежих, а порой и эксклюзивных релизов, которые Вы можете скачать совершенно бесплатно и без каких-либо регистраций. Посему рекомендуем Вам добавить HQClub себе в закладки, а также подписаться на нашу ленту новостей, чтобы всегда быть в курсе всех событий. Ну а если Вы такой же синий фил, как и мы, то милости просим на наш форум. И в заключение, попробуйте зарегистрироваться, ведь не так это и сложно и займет всего лишь пару минут! Вот увидите, Вам у нас понравится и Вы вольетесь в наш дружный коллектив! Ну а пока - осматривайтесь = )
Мы рады Вам !





Тату / Tattoo (2002) BDRip-AVC

Оформил: Elheym | 28 сентября 2014 - 13:25:00 | Комментариев: 1 | Обращений: 913 {bookmarks_news}

http//lostpic.net/orig_images/3/2/8/328037bfd5f8db25e4d366bf53325cf9.png

Информация о фильме:
Название: Тату
Оригинальное название: Tattoo
Год выхода: 2002
Жанр: триллер, драма, криминал
Режиссер: Роберт Швентке
В ролях: Аугуст Диль, Кристиан Редль, Надежда Бреннике, Йохан Лейзен, Фатих Севикколлу, Моника Бляйбтрой, Илькнул Бахадыр, Джо Бауш, Флориан Панцнер, Ясмин Швирс

О фильме: Выпускник полицейской школы Марк начинает работать в убойном отделе под руководствам комиссара Минкса. И с первого же дня Марк начинает принимать участие в расследовании весьма необычного дела. Неизвестный серийный убийца сдирает татуированную кожу со своих жертв и за большие суммы продает ее любителям запретной экзотики.

С помощью приехавшей из Нью-Йорка Майи, подруги одной из убитых, полицейские нападают на след. Но каждый, кто пытается отыскать таинственного преступника-садиста, оказывается затянут в жуткий кровавый водоворот извращенных страстей, а в конце пути его поджидает мучительная смерть.

«Спасай свою шкуру...»



http//rating.kinopoisk.ru/77262.gif http//tracker.0day.kiev.ua/imdb/imdb_tt0286204.gif

Релиз от - http//hqclub.net/images/hqclub.png
Автор рипа: Elheym

Выпущено: Германия, B.A. Produktion, Lounge Entertainment GmbH, Studio Canal
Продолжительность: 01:48:54
Перевод: Профессиональный (двухголосый, закадровый) R5
Оригинальная аудио дорожка: немецкий
Субтитры: нет
Главы: присутствуют, сохранены оригинальные

Файл:
Формат: MKV
Качество: BDRip-AVC (источник: http//lostpic.net/images/20a38122bcc5994b3cdae6e4b4b0.png / Blu-ray Disc / 1080p)
Видео: 1120x476 (2.35:1), 23.976 fps, MPEG-4 AVC, ~3570 kbps avg, 0.279 bit/pixel
Аудио #1: AC3 Dolby Digital, 3/2 (L,C,R,l,r) + LFE ch, ~448 kbps (RUS)
Аудио #2: AC3 Dolby Digital, 3/2 (L,C,R,l,r) + LFE ch, ~448 kbps (GER)
Размер: 3.46 GB
Сэмпл: скачать

http//lostpic.net/thumbs_images/2/9/6/2963e8284605e1daa51b13b04ee7be2e.png http//lostpic.net/thumbs_images/7/9/1/791614f6afb8083be460810c0e4cc6a4.png http//lostpic.net/thumbs_images/f/b/a/fba1098a9439d64bbac3cc0db8a4ca.png http//lostpic.net/thumbs_images/0/7/c/07c004b99e36203e3fb4c686f3bcdb.png http//lostpic.net/thumbs_images/3/9/b/39b4e7e751da90aceeca291a00ebcb6f.png http//lostpic.net/thumbs_images/5/2/4/524392af389d94a8262403f04eb0920f.png

"MediaInfo"

Уникальный идентификатор : 251566356787354309250871023757899134024 (0xBD41EAFF03C93FAE89285D283948F448)
Полное имя : Tattoo.2002.DUAL.BDRip-AVC.x264.AC3.-HQCLUB.mkv
Формат : Matroska
Версия формата : Version 2
Размер файла : 3,47 Гбайт
Продолжительность : 1 ч. 48 м.
Общий поток : 4556 Кбит/сек
Дата кодирования : UTC 2014-09-28 08:11:20
Программа кодирования : mkvmerge v5.2.0 ('I can't explain') built on Dec 18 2011 18:12:03
Библиотека кодирования : libebml v1.2.3 + libmatroska v1.3.0

Видео
Идентификатор : 1
Формат : AVC
Формат/Информация : Advanced Video Codec
Профиль формата : High@L4.1
Параметр CABAC формата : Да
Параметр ReFrames формата : 13 кадров
Идентификатор кодека : V_MPEG4/ISO/AVC
Продолжительность : 1 ч. 48 м.
Битрейт : 3570 Кбит/сек
Ширина : 1120 пикселей
Высота : 476 пикселей
Соотношение сторон : 2,35:1
Режим частоты кадров : Постоянный
Частота кадров : 23,976 кадра/сек
Цветовое пространство : YUV
Субдискретизация насыщенности : 4:2:0
Битовая глубина : 8 бит
Тип развёртки : Прогрессивная
Бит/(Пиксели*Кадры) : 0.279
Размер потока : 2,72 Гбайт (78%)
Заголовок : Тату / Tattoo (2002) BDRip-AVC by HQCLUB [Elheym]
Библиотека кодирования : x264 core 142 r2479kMod dd79a61
Настройки программы : cabac=1 / ref=13 / deblock=1:-3:-2 / analyse=0x3:0x113 / me=umh / subme=11 / psy=1 / fade_compensate=0.00 / psy_rd=1.07:0.03 / mixed_ref=1 / me_range=32 / chroma_me=1 / trellis=2 / 8x8dct=1 / cqm=0 / deadzone=21,11 / fast_pskip=0 / chroma_qp_offset=-5 / threads=6 / lookahead_threads=1 / sliced_threads=0 / nr=0 / decimate=1 / interlaced=0 / bluray_compat=0 / constrained_intra=0 / fgo=0 / bframes=11 / b_pyramid=2 / b_adapt=2 / b_bias=0 / direct=1 / weightb=1 / open_gop=0 / weightp=2 / keyint=240 / keyint_min=23 / scenecut=40 / intra_refresh=0 / rc_lookahead=40 / rc=crf / mbtree=1 / crf=15.2000 / qcomp=0.60 / qpmin=0 / qpmax=69 / qpstep=4 / vbv_maxrate=50000 / vbv_bufsize=62500 / crf_max=0.0 / nal_hrd=none / filler=0 / ip_ratio=1.40 / aq=3:0.85
Язык : German
Default : Да
Forced : Нет

Аудио #1
Идентификатор : 2
Формат : AC-3
Формат/Информация : Audio Coding 3
Расширение режима : CM (complete main)
Параметр Endianness формата : Big
Идентификатор кодека : A_AC3
Продолжительность : 1 ч. 48 м.
Вид битрейта : Постоянный
Битрейт : 448 Кбит/сек
Каналы : 6 каналов
Расположение каналов : Front: L C R, Side: L R, LFE
Частота : 48,0 КГц
Битовая глубина : 16 бит
Метод сжатия : С потерями
Размер потока : 349 Мбайт (10%)
Заголовок : АС3 5.1 @ 448 kbps - DVO, R5
Язык : Russian
Default : Нет
Forced : Нет

Аудио #2
Идентификатор : 3
Формат : AC-3
Формат/Информация : Audio Coding 3
Расширение режима : CM (complete main)
Параметр Endianness формата : Big
Идентификатор кодека : A_AC3
Продолжительность : 1 ч. 48 м.
Вид битрейта : Постоянный
Битрейт : 448 Кбит/сек
Каналы : 6 каналов
Расположение каналов : Front: L C R, Side: L R, LFE
Частота : 48,0 КГц
Битовая глубина : 16 бит
Метод сжатия : С потерями
Размер потока : 349 Мбайт (10%)
Заголовок : АС3 5.1 @ 448 kbps - Original
Язык : German
Default : Нет
Forced : Нет

Меню
00:00:00.000 : :Chapter 01
00:01:58.326 : :Chapter 02
00:04:31.187 : :Chapter 03
00:09:18.724 : :Chapter 04
00:15:50.741 : :Chapter 05
00:18:53.549 : :Chapter 06
00:25:51.591 : :Chapter 07
00:30:55.937 : :Chapter 08
00:35:29.418 : :Chapter 09
00:40:44.191 : :Chapter 10
00:44:39.468 : :Chapter 11
00:50:49.755 : :Chapter 12
00:56:03.693 : :Chapter 13
00:59:14.968 : :Chapter 14
01:01:47.370 : :Chapter 15
01:07:31.047 : :Chapter 16
01:14:19.663 : :Chapter 17
01:17:55.879 : :Chapter 18
01:21:23.587 : :Chapter 19
01:27:26.991 : :Chapter 20
01:33:07.206 : :Chapter 21
01:38:23.606 : :Chapter 22
01:40:28.814 : :Chapter 23
01:43:36.627 : :Chapter 24
01:45:03.797 : :Chapter 25

"x264 log"

x264 [info]: frame I:1080 Avg QP:11.20 size:103665
x264 [info]: frame P:30494 Avg QP:14.14 size: 36920
x264 [info]: frame B:125092 Avg QP:16.44 size: 13992

x264 [info]: consecutive B-frames: 1.6% 1.2% 4.3% 11.0% 18.3% 50.7% 6.6% 2.4% 1.8% 1.0% 0.8% 0.4%

x264 [info]: ref P L0: 37.1% 6.5% 19.5% 8.0% 7.2% 4.8% 4.7% 2.5% 2.5% 1.9% 1.9% 1.6% 1.7% 0.2% 0.0%
x264 [info]: ref B L0: 65.9% 13.3% 6.7% 3.7% 2.7% 2.3% 1.8% 1.1% 0.9% 0.9% 0.5% 0.3%
x264 [info]: ref B L1: 91.8% 8.2%


Ссылки для скачивания:

http//bt.hqclub.net/files/ok.png Торрент: Тату / Tattoo (2002) BDRip-AVC

Лучшая онлайн игра!


Публикация материалов сайта на сторонних ресурсах возможна только в неизменном виде.


Обсудить релиз на форуме

Вас также может заинтересовать:


  • 5
 (Голосов: 2)


Распечатать новость на принтере Триллер, Драма, Криминал

КОММЕНТАРИИ

 №1. ru4lan

Статус: Кинокритик | Новостей: 0 | Комментариев: 2736
ru4lan спасибо!
~~~

30.09.2014 - 11:20   цитировать