Вас Приветствует Релиз-группа HQCLUB


Помощь ресурсу, очень ВАЖНО!!!



.


WELCOME
Добро пожаловать в наше интернет - сообщество!

Всех нас объединяет одна страсть - страсть к высококачественному кино. А это наш сайт. Ежедневно здесь мы публикуем десятки качественных, свежих, а порой и эксклюзивных релизов, которые Вы можете скачать совершенно бесплатно и без каких-либо регистраций. Посему рекомендуем Вам добавить HQClub себе в закладки, а также подписаться на нашу ленту новостей, чтобы всегда быть в курсе всех событий. Ну а если Вы такой же синий фил, как и мы, то милости просим на наш форум. И в заключение, попробуйте зарегистрироваться, ведь не так это и сложно и займет всего лишь пару минут! Вот увидите, Вам у нас понравится и Вы вольетесь в наш дружный коллектив! Ну а пока - осматривайтесь = )
Мы рады Вам !





Девушка с татуировкой дракона / The Girl with the Dragon Tattoo (2011) BDRip-AVC

Оформил: Rensler | 30 июля 2015 - 10:55:54 | Обращений: 703 {bookmarks_news}

http//lostpic.net/orig_images/b/0/6/b06a43c8a17bfc56327d84458dc3a6c5.png

Информация о фильме
Название: Девушка с татуировкой дракона
Оригинальное название: The Girl with the Dragon Tattoo
Год выхода: 2011
Жанр: Триллер, Драма, Экранизация
В ролях: Дэниэл Крэйг, Руни Мара, Кристофер Пламмер, Стеллан Скарсгард, Стивен Беркофф, Робин Райт, Йорик ван Вагенинген, Джоэли Ричардсон, Джеральдин Джеймс, Горан Вишнич
Режиссёр: Дэвид Финчер / David Fincher

О фильме: Сорок лет назад Харриет Вангер бесследно пропала на острове, принадлежащем могущественному клану Вангер. Ее тело так и не было найдено, но ее дядя убежден, что это убийство и что убийца является членом его собственной, тесно сплоченной и неблагополучной семьи. Он нанимает опального журналиста Микаэля Блумквиста и татуированную хакершу Лисбет Саландер для проведения расследования.

«Evil shall with evil be expelled»



User Rating: 7.8/10 (122 750 votes )
IMDB: 7.9/10 (298 666 votes )

Релиз от - http//hqclub.net/images/hqclub.png
Автор рипа: Rensler

Выпущено: США, Германия, Швеция, Великобритания
Студия: Columbia Pictures, Film Rites, Ground Control, Metro-Goldwyn-Mayer (MGM)
Продолжительность: 02:38:08
Перевод:
• Профессиональный (полное дублирование) BD CEE
Оригинальная аудиодорожка: Английская
Субтитры: Русские (форсированные, полные), Английские (полные, SDH)
Главы: Сохранены чаптеры с оригинального Blu-ray Disc

Файл:
Формат: MKV
Качество: BDRip 1080p (источник: https//hdclub.org/dox/sitebutton_tracker.hdclub.com.ua1.gif / Blu-ray CEE 1080p AVC DD5.1)
Видео: 1126x468 (2,40:1) at 23.976, MPEG-4 AVC ~ 1744 kbps avg, 0.138 bit/pixel
Аудио#1: 48 kHz/16-bit, AC3 Dolby Digital, 3/2 (L,C,R,l,r) + LFE ch, ~ 448 kbps avg | RUS
Аудио#2: 48 kHz/16-bit, AC3 Dolby Digital, 3/2 (L,C,R,l,r) + LFE ch, ~ 448 kbps avg | ENG
Размер: 2,91 GB
Скачать: Семпл

"log@x.264"
x264 [info]: frame I:2351 Avg QP:14.42 size: 73678
x264 [info]: frame P:40784 Avg QP:15.47 size: 21695
x264 [info]: frame B:184338 Avg QP:17.61 size: 5471
x264 [info]: consecutive B-frames: 1.7% 1.2% 4.7% 10.2% 13.6% 40.2% 8.4% 4.2% 3.1% 1.7% 1.9% 2.9% 1.7% 1.6% 1.0% 0.9%
x264 [info]: ref P L0: 50.9% 8.4% 16.3% 8.1% 6.0% 4.5% 3.6% 2.0% 0.2% 0.0%


"MediaInfo"
Уникальный идентификатор : 230063121807779598630696028118662950114 (0xAD148BA86FA4F2B5991EEEDD5B6EACE2)
Полное имя : The.Girl.With.The.Dragon.Tattoo.2011.BDRip.AVC.-HQCLUB.mkv
Формат : Matroska
Версия формата : Version 4 / Version 2
Размер файла : 2,91 Гбайт
Продолжительность : 2 ч. 38 м.
Общий поток : 2641 Кбит/сек
Название фильма : Девушка с татуировкой дракона / The Girl with the Dragon Tattoo (2011) BDRip-AVC
Дата кодирования : UTC 2010-02-22 21:41:31
Программа кодирования : mkvmerge v5.8.0 ('No Sleep / Pillow') built on Sep 30 2012 10:57:14
Библиотека кодирования : libebml v1.3.0 + libmatroska v1.4.0
Attachements : Cover.png

Видео
Идентификатор : 1
Формат : AVC
Формат/Информация : Advanced Video Codec
Профиль формата : High@L4.1
Параметр CABAC формата : Да
Параметр ReFrames формата : 8 кадров
Идентификатор кодека : V_MPEG4/ISO/AVC
Продолжительность : 2 ч. 38 м.
Битрейт : 1744 Кбит/сек
Ширина : 1126 пикселей
Высота : 468 пикселей
Соотношение сторон : 2,40:1
Режим частоты кадров : Постоянный
Частота кадров : 23,976 кадра/сек
Цветовое пространство : YUV
Субдискретизация насыщенности : 4:2:0
Битовая глубина : 8 бит
Тип развёртки : Прогрессивная
Бит/(Пиксели*Кадры) : 0.138
Размер потока : 1,87 Гбайт (64%)
Заголовок : Release by Rensler
Библиотека кодирования : x264 core 146 r2538 121396c
Настройки программы : cabac=1 / ref=8 / deblock=1:-3:-3 / analyse=0x3:0x113 / me=umh / subme=11 / psy=1 / psy_rd=1.00:0.10 / mixed_ref=1 / me_range=32 / chroma_me=1 / trellis=2 / 8x8dct=1 / cqm=0 / deadzone=21,11 / fast_pskip=0 / chroma_qp_offset=-3 / threads=3 / lookahead_threads=1 / sliced_threads=0 / nr=0 / decimate=0 / interlaced=0 / bluray_compat=0 / constrained_intra=0 / bframes=15 / b_pyramid=2 / b_adapt=2 / b_bias=0 / direct=3 / weightb=1 / open_gop=0 / weightp=2 / keyint=240 / keyint_min=23 / scenecut=40 / intra_refresh=0 / rc_lookahead=60 / rc=2pass / mbtree=0 / bitrate=1744 / ratetol=1.0 / qcomp=0.80 / qpmin=0 / qpmax=69 / qpstep=4 / cplxblur=20.0 / qblur=0.5 / vbv_maxrate=50000 / vbv_bufsize=62500 / nal_hrd=none / filler=0 / ip_ratio=1.40 / pb_ratio=1.30 / aq=2:0.90
Язык : English
Default : Да
Forced : Нет

Аудио #1
Идентификатор : 2
Формат : AC-3
Формат/Информация : Audio Coding 3
Расширение режима : CM (complete main)
Параметр Endianness формата : Big
Идентификатор кодека : A_AC3
Продолжительность : 2 ч. 38 м.
Вид битрейта : Постоянный
Битрейт : 448 Кбит/сек
Каналы : 6 каналов
Расположение каналов : Front: L C R, Side: L R, LFE
Частота : 48,0 КГц
Битовая глубина : 16 бит
Метод сжатия : С потерями
Размер потока : 507 Мбайт (17%)
Заголовок : BD CEE
Язык : Russian
Default : Да
Forced : Нет

Аудио #2
Идентификатор : 3
Формат : AC-3
Формат/Информация : Audio Coding 3
Расширение режима : CM (complete main)
Параметр Endianness формата : Big
Идентификатор кодека : A_AC3
Продолжительность : 2 ч. 38 м.
Вид битрейта : Постоянный
Битрейт : 448 Кбит/сек
Каналы : 6 каналов
Расположение каналов : Front: L C R, Side: L R, LFE
Частота : 48,0 КГц
Битовая глубина : 16 бит
Метод сжатия : С потерями
Размер потока : 507 Мбайт (17%)
Заголовок : Original
Язык : English
Default : Нет
Forced : Нет

Текст #1
Идентификатор : 4
Формат : UTF-8
Идентификатор кодека : S_TEXT/UTF8
Идентификатор кодека/Информация : UTF-8 Plain Text
Заголовок : Forced
Язык : Russian
Default : Да
Forced : Нет

Текст #2
Идентификатор : 5
Формат : UTF-8
Идентификатор кодека : S_TEXT/UTF8
Идентификатор кодека/Информация : UTF-8 Plain Text
Заголовок : Full
Язык : Russian
Default : Нет
Forced : Нет

Текст #3
Идентификатор : 6
Формат : UTF-8
Идентификатор кодека : S_TEXT/UTF8
Идентификатор кодека/Информация : UTF-8 Plain Text
Заголовок : Full
Язык : English
Default : Нет
Forced : Нет

Текст #4
Идентификатор : 7
Формат : UTF-8
Идентификатор кодека : S_TEXT/UTF8
Идентификатор кодека/Информация : UTF-8 Plain Text
Заголовок : SDH
Язык : English
Default : Нет
Forced : Нет

Меню
00:00:00.000 : en:Blomkvist's Trial
00:09:53.884 : en:Henrik Vanger
00:22:05.699 : en:A New Guardian
00:28:24.786 : en:Vanger Family History
00:38:09.745 : en:Business Transaction
00:48:00.919 : en:Rape
00:55:07.345 : en:Revenge
01:01:06.204 : en:Blomkvist ans Wasp
01:09:22.032 : en:Religious Murders
01:16:12.859 : en:Blomkvist's Girlfriend
01:23:27.711 : en:Nazi Killings
01:32:49.730 : en:Father and Son
01:41:35.005 : en:The Chase
01:58:54.210 : en:Two Anitas
02:14:42.532 : en:Wennerstrom
02:23:15.837 : en:End Credits


http//lostpic.net/thumbs_images/b/d/2/bd2744fbe11ad3ba74bf7e642e6c0d8b.png http//lostpic.net/thumbs_images/b/a/3/ba3ff2ad3c71f3b686605cba4b8c73.png http//lostpic.net/thumbs_images/6/a/3/6a35ce30ab1afd1738795c1065cf2339.png
http//lostpic.net/thumbs_images/e/6/f/e6fa43bfedadab5e3c78899ff6f1a2b8.png http//lostpic.net/thumbs_images/9/b/3/9b3deedcc7a63f56ccf46945f469621f.png http//lostpic.net/thumbs_images/d/5/d/d5db4b8033762ccf9c3f5844cbe3e03b.png

Ссылки для скачивания:
http//bt.hqclub.net/files/ok.png Торрент: Девушка с татуировкой дракона / The Girl with the Dragon Tattoo (2011) BDRip-AVC



Лучшая онлайн игра!


Публикация материалов сайта на сторонних ресурсах возможна только в неизменном виде.


Обсудить релиз на форуме

Вас также может заинтересовать:


  • 5
 (Голосов: 8)


Распечатать новость на принтере Триллер, Драма
Обновлено: 30.07.2015 - 18:11