Вас Приветствует Релиз-группа HQCLUB


Помощь ресурсу, очень ВАЖНО!!!



.


WELCOME
Добро пожаловать в наше интернет - сообщество!

Всех нас объединяет одна страсть - страсть к высококачественному кино. А это наш сайт. Ежедневно здесь мы публикуем десятки качественных, свежих, а порой и эксклюзивных релизов, которые Вы можете скачать совершенно бесплатно и без каких-либо регистраций. Посему рекомендуем Вам добавить HQClub себе в закладки, а также подписаться на нашу ленту новостей, чтобы всегда быть в курсе всех событий. Ну а если Вы такой же синий фил, как и мы, то милости просим на наш форум. И в заключение, попробуйте зарегистрироваться, ведь не так это и сложно и займет всего лишь пару минут! Вот увидите, Вам у нас понравится и Вы вольетесь в наш дружный коллектив! Ну а пока - осматривайтесь = )
Мы рады Вам !





Кориолан / Coriolanus (2011) BDRip 720p

Оформил: Sky™ | 9 мая 2012 - 16:14:48 | Обращений: 1711 {bookmarks_news}

http//lostpic.net/images/559d7ab5a0470fafd2e4609893ff.png

Информация о фильме:
Название: Кориолан
Оригинальное название: Coriolanus
Год выхода: 2011
Жанр: триллер, драма
Режиссер: Рэйф Файнс
В ролях: Джессика Честейн, Рэйф Файнс, Джерард Батлер, Брайан Кокс, Ванесса Редгрейв, Джеймс Несбитт, Ашраф Бархом, Лубна Азабаль, Драган Мичанович, Никки Амука-Бёрд

О фильме: Сюжет картины основан на легенде о полководце Гнее Марцие Кориолане, жившем в Риме в пятом веке до нашей эры. Действие картины из Древнего Рима перенесено в наши дни, и вместо мечей главные герои «Кориолана» сжимают в руках автоматы.

«Даже зверь понимает кто ему друг»



http//www.kinopoisk.ru/rating/462250.gif http//imdb.snick.ru/ratefor/03/tt1372686.png

Релиз от - http//hqclub.net/images/hqclub.png
Автор рипа: Sky™

Выпущено: Великобритания (Hermetof Pictures, Magna Films, Icon Entertainment International)
Продолжительность: 02:03:19
Перевод: Профессиональный (полное дублирование) + Оригинальная звуковая дорожка (Английский)
Субтитры: Русские Английские (SDH) Воронин(*.srt, отключаемые)

Файл:
Формат: mkv
Качество: BDRip 720p (источник: http//lostpic.net/images/9c91306e9cffafb1a5062eee37d4276c.png / Blu-Ray Disc / 1080p)
Видео: 1280x544 (2.35:1), 23.976 fps, x264@L4.1, crf, ~6088 kbps avg, 0.365 bit/pixel
Аудио #1: 48 kHz, AC3 Dolby Digital, 3/2 (L,C,R,l,r) + LFE ch, ~384 kbps avg (RUS)
Аудио #2: 48 kHz, DTS, 3/2 (L,C,R,l,r) + LFE ch, ~1509 kbps avg (ENG)
Размер: 7185.40 Mb
http//lostpic.net/images/1b899dddff9c84e7020a856612f5c646.png

http//lostpic.net/thumbs/437e15291c958fa2e19330f93e38e9a3.png http//lostpic.net/thumbs/c11d647800e809bfa43d52780b0f4a21.png http//lostpic.net/thumbs/c4e386c86a174d6e1ac7c40df0c4bf58.png http//lostpic.net/thumbs/34cca85136873f5592c67d37e0b90124.png http//lostpic.net/thumbs/5e00752aca1fa754a2a1fe8de37e592b.png http//lostpic.net/thumbs/83bf8d9b43397dc2eb069fa0efa1a2.png
MediaINFO
Полное имя : Koriolan.2011.BDRip.720p.H264.AC3.DTS-HQCLUB.mkv
Формат : Matroska
Версия формата : Version 2
Размер файла : 7,02 Гбайт
Продолжительность : 2 ч. 3 м.
Общий поток : 8144 Кбит/сек
Дата кодирования : UTC 2012-05-09 06:58:25
Программа кодирования : mkvmerge v4.9.1 ('Ich will') сборка от Jul 11 2011 23:53:15
Библиотека кодирования : libebml v1.2.1 + libmatroska v1.1.1

Видео
Идентификатор : 1
Формат : AVC
Формат/Информация : Advanced Video Codec
Профиль формата : High@L4.1
Параметр CABAC формата : Да
Параметр ReFrames формата : 9 кадров
Идентификатор кодека : V_MPEG4/ISO/AVC
Продолжительность : 2 ч. 3 м.
Битрейт : 6088 Кбит/сек
Ширина : 1280 пикселей
Высота : 544 пикселя
Соотношение сторон : 2,35:1
Частота кадров : 23,976 кадра/сек
Цветовое пространство : YUV
Субдискретизация насыщенности : 4:2:0
Битовая глубина : 8 бит
Тип развёртки : Прогрессивная
Бит/(Пиксели*Кадры) : 0.365
Размер потока : 5,25 Гбайт (75%)
Заголовок : Кориолан / Coriolanus (2011) BDRip 720p | HQCLUB
Библиотека кодирования : x264 core 120 r2164 da19765
Настройки программы : cabac=1 / ref=9 / deblock=1:-3:-3 / analyse=0x3:0x113 / me=umh / subme=11 / psy=1 / psy_rd=1.05:0.15 / mixed_ref=1 / me_range=32 / chroma_me=1 / trellis=2 / 8x8dct=1 / cqm=0 / deadzone=21,11 / fast_pskip=1 / chroma_qp_offset=-3 / threads=12 / sliced_threads=0 / nr=0 / decimate=1 / interlaced=0 / bluray_compat=0 / constrained_intra=0 / bframes=9 / b_pyramid=2 / b_adapt=2 / b_bias=0 / direct=1 / weightb=1 / open_gop=0 / weightp=2 / keyint=250 / keyint_min=25 / scenecut=40 / intra_refresh=0 / rc=crf / mbtree=0 / crf=19.0 / qcomp=0.60 / qpmin=10 / qpmax=51 / qpstep=4 / ip_ratio=1.40 / pb_ratio=1.30 / aq=1:0.90
Язык : English
Default : Да
Forced : Нет

Аудио #1
Идентификатор : 2
Формат : AC-3
Формат/Информация : Audio Coding 3
Расширение режима : CM (complete main)
Параметр Endianness формата : Big
Идентификатор кодека : A_AC3
Продолжительность : 2 ч. 3 м.
Вид битрейта : Постоянный
Битрейт : 384 Кбит/сек
Каналы : 6 каналов
Расположение каналов : Front: L C R, Side: L R, LFE
Частота : 48,0 КГц
Битовая глубина : 16 бит
Метод сжатия : С потерями
Размер потока : 339 Мбайт (5%)
Заголовок : Дубляж (R5) AC3 5.1 @ 384 kbps
Язык : Russian
Default : Нет
Forced : Да

Аудио #2
Идентификатор : 3
Формат : DTS
Формат/Информация : Digital Theater Systems
Идентификатор кодека : A_DTS
Продолжительность : 2 ч. 3 м.
Вид битрейта : Постоянный
Битрейт : 1510 Кбит/сек
Каналы : 6 каналов
Расположение каналов : Front: L C R, Side: L R, LFE
Частота : 48,0 КГц
Битовая глубина : 24 бит
Метод сжатия : С потерями
Размер потока : 1,30 Гбайт (19%)
Заголовок : Оригинал DTS 5.1 @ 1509 kbps
Язык : English
Default : Да
Forced : Да

Текст #1
Идентификатор : 4
Формат : UTF-8
Идентификатор кодека : S_TEXT/UTF8
Идентификатор кодека/Информация : UTF-8 Plain Text
Заголовок : Full by Voronin
Язык : Russian
Default : Да
Forced : Да

Текст #2
Идентификатор : 5
Формат : UTF-8
Идентификатор кодека : S_TEXT/UTF8
Идентификатор кодека/Информация : UTF-8 Plain Text
Заголовок : SDH by Voronin
Язык : English
Default : Нет
Forced : Да

Меню
00:00:00.000 : en:00:00:00.000
00:07:53.348 : en:00:07:53.348
00:13:00.405 : en:00:13:00.405
00:17:42.103 : en:00:17:42.103
00:27:38.156 : en:00:27:38.156
00:34:11.925 : en:00:34:11.925
00:42:25.460 : en:00:42:25.460
00:49:51.363 : en:00:49:51.363
00:54:39.818 : en:00:54:39.818
01:01:25.432 : en:01:01:25.432
01:08:22.056 : en:01:08:22.056
01:12:59.959 : en:01:12:59.959
01:21:08.197 : en:01:21:08.197
01:25:10.647 : en:01:25:10.647
01:31:09.047 : en:01:31:09.047
01:37:21.127 : en:01:37:21.127
01:49:35.444 : en:01:49:35.444
01:57:41.554 : en:01:57:41.554

log
---[NoImage] x264 [info]: frame I:1091 Avg QP:17.79 size:104306
---[NoImage] x264 [info]: frame P:35646 Avg QP:18.63 size: 50548
---[NoImage] x264 [info]: frame B:140671 Avg QP:20.74 size: 27477
---[NoImage] x264 [info]: consecutive B-frames: 1.7% 2.4% 6.7% 8.3% 12.5% 57.0% 6.3% 1.4% 2.0% 1.6%
---[NoImage] x264 [info]: mb I I16..4: 20.2% 69.9% 9.9%
---[NoImage] x264 [info]: mb P I16..4: 1.5% 27.0% 1.1% P16..4: 23.7% 30.0% 10.6% 0.0% 0.0% skip: 6.2%
---[NoImage] x264 [info]: mb B I16..4: 0.1% 5.7% 0.1% B16..8: 40.6% 22.0% 4.6% direct: 8.0% skip:18.9% L0:46.6% L1:45.1% BI: 8.3%
---[NoImage] x264 [info]: 8x8 transform intra:92.5% inter:60.3%
---[NoImage] x264 [info]: coded y,uvDC,uvAC intra: 97.9% 85.6% 61.7% inter: 49.6% 32.8% 6.2%
---[NoImage] x264 [info]: i16 v,h,dc,p: 11% 3% 34% 52%
---[NoImage] x264 [info]: i8 v,h,dc,ddl,ddr,vr,hd,vl,hu: 6% 6% 15% 10% 14% 12% 13% 11% 13%
---[NoImage] x264 [info]: i4 v,h,dc,ddl,ddr,vr,hd,vl,hu: 7% 6% 9% 9% 16% 14% 15% 12% 13%
---[NoImage] x264 [info]: i8c dc,h,v,p: 47% 21% 16% 16%
---[NoImage] x264 [info]: Weighted P-Frames: Y:17.0% UV:9.6%
---[NoImage] x264 [info]: ref P L0: 39.9% 10.7% 20.5% 7.6% 6.9% 4.5% 4.4% 2.4% 2.5% 0.4% 0.1%
---[NoImage] x264 [info]: ref B L0: 67.9% 13.5% 7.2% 4.0% 3.0% 2.6% 1.3% 0.4%
---[NoImage] x264 [info]: ref B L1: 91.1% 8.9%

Ссылки для скачивания:

http//bt.hqclub.net/files/ok.png Торрент: Кориолан / Coriolanus (2011) BDRip 720p

Лучшая онлайн игра!


Публикация материалов сайта на сторонних ресурсах возможна только в неизменном виде.


Обсудить релиз на форуме

Вас также может заинтересовать:


  • 4
 (Голосов: 4)


Распечатать новость на принтере Триллер, Драма
Обновлено: 13.05.2012 - 00:00