Вас Приветствует Релиз-группа HQCLUB


Помощь ресурсу, очень ВАЖНО!!!



.


WELCOME
Добро пожаловать в наше интернет - сообщество!

Всех нас объединяет одна страсть - страсть к высококачественному кино. А это наш сайт. Ежедневно здесь мы публикуем десятки качественных, свежих, а порой и эксклюзивных релизов, которые Вы можете скачать совершенно бесплатно и без каких-либо регистраций. Посему рекомендуем Вам добавить HQClub себе в закладки, а также подписаться на нашу ленту новостей, чтобы всегда быть в курсе всех событий. Ну а если Вы такой же синий фил, как и мы, то милости просим на наш форум. И в заключение, попробуйте зарегистрироваться, ведь не так это и сложно и займет всего лишь пару минут! Вот увидите, Вам у нас понравится и Вы вольетесь в наш дружный коллектив! Ну а пока - осматривайтесь = )
Мы рады Вам !





Преследователь / Охотник / The Chaser / Chugyeogja (2008) BDRip-AVC

Оформил: DaniLch | 22 сентября 2011 - 12:14:06 | Обращений: 1857 {bookmarks_news}

http//lostpic.net/images/5624e34542a50cbc79afd9088618be8d.png

Название: Преследователь
Оригинальное название: Chugyeogja
Год выхода: 2008
Жанр: триллер, драма
Режиссер: Хонг-джин На / Hong-jin Na
В ролях: Юнь-cок Ким, Юнг Ву Ха, Со Ён Хи, Seong-kwang Ha, Ин-ги Юнг, Bon-woong Ko, Jong-goo Lee, Sang-hee Lee, Hyo-ju Park, Moo-yeong Yeo

О фильме: Раньше Чун Хо служил в элитном подразделении полиции Сеула. Теперь он — обыкновенный сутенер, но в целом доволен жизнью, если бы только его «девочки по вызову» не сбегали так часто. Какие же они неблагодарные! Он выдает им авансы, жестко разбирается с клиентами-извращенцами, создает все условия для работы, но терпит убытки…

Однажды Чун Хо замечает странную закономерность: всех беглянок заказывали с одного и того же телефонного номера. Его последняя девушка, Ми Чжин, как раз уехала к этому клиенту… Чун Хо не знает адреса, а связь с Ми Чжин обрывается. Он должен найти подонка, который, как он считает, продает его сотрудниц…

По странному стечению обстоятельств найти преступника — зловеще-невозмутимого маньяка-убийцу оказывается легко и просто. Но «найти» еще не значит «остановить». Начинается «гонка на выживание» — жизнь девушки и ее ребенка зависит от того, кто первым найдет последнюю жертву — маньяк, полиция или сам Чун Хо.

http//www.kinopoisk.ru/rating/4004.gif

Релиз от - http//hqclub.net/images/hqclub.png
Автор рипа: DaniLch

Выпущено: http//lostpic.net/images/714f7b59d42bdb4fb4eb4d56e7276af6.gif Южная Корея | Showbox Entertainment
Продолжительность: 01:59:56

Источник: BD-Remux 1080i by DaniLch
Контейнер: MKV
Видео: 1024x436 (2.35:1), 25.000 fps, x264@L4.0, crf, ~3434 kbps
Аудио #1: Russian: 48 kHz, AC3 Dolby Digital, 3/2 (L,C,R,l,r) + LFE ch, ~384 kbps |Многоголосый закадровый, R5 «Новый Диск»|
Аудио #2: Russian: 48 kHz, AC3 Dolby Digital, 3/2 (L,C,R,l,r) + LFE ch, ~384 kbps |Одноголосый закадровый, Ю.Сербин|
Аудио #3: Korean: 48 kHz, AC3 Dolby Digital, 3/2 (L,C,R,l,r) + LFE ch, ~384 kbps
Субтитры: русские (Ю.Сербин), русские (R5), английские
Размер: 3.91 Gb

http//lostpic.net/images/8ac58c47168f25026be800d519b61694.png

http//lostpic.net/thumbs/84672cf4f68f7884663f3e6246903190.png http//lostpic.net/thumbs/c1f0916c7b30f56b9d6f5ada4cc0e2.png http//lostpic.net/thumbs/7194df90e1bf91b5bc16f347d91396a8.png http//lostpic.net/thumbs/b3e581c77c8bc9d3de82e5400d8eba.png

http//bt.hqclub.net/files/ok.png Торрент: Преследователь / Охотник / The Chaser / Chugyeogja (2008) BDRip-AVC

MediaInfo
General
Complete name : Presledovatel.2008.BDRip-AVC.H264.AC3.-HQCLUB.mkv
Format : Matroska
File size : 3.92 GiB
Duration : 1h 59mn
Overall bit rate : 4 679 Kbps
Movie name : Rip by DaniLch | HQCLUB.NET
Encoded date : UTC 2011-09-22 07:55:26
Writing application : mkvmerge v4.9.1 ('Ich will') built on Jul 11 2011 23:53:15
Writing library : libebml v1.2.1 + libmatroska v1.1.1

Video
ID : 1
Format : AVC
Format/Info : Advanced Video Codec
Format profile : High@L4.0
Format settings, CABAC : Yes
Format settings, ReFrames : 8 frames
Format settings, GOP : M=1, N=25
Codec ID : V_MPEG4/ISO/AVC
Duration : 1h 59mn
Bit rate : 3 434 Kbps
Width : 1 024 pixels
Height : 436 pixels
Display aspect ratio : 2.35:1
Frame rate : 25.000 fps
Color space : YUV
Chroma subsampling : 4:2:0
Bit depth : 8 bits
Scan type : Progressive
Bits/(Pixel*Frame) : 0.308
Stream size : 2.88 GiB (73%)
Title : Chugyeogja / The Chaser (2008)
Writing library : x264 core 116 r2074 2641b9e
Encoding settings : cabac=1 / ref=8 / deblock=1:-3:-3 / analyse=0x3:0x113 / me=umh / subme=10 / psy=1 / psy_rd=0.92:0.10 / mixed_ref=1 / me_range=32 / chroma_me=1 / trellis=2 / 8x8dct=1 / cqm=0 / deadzone=21,11 / fast_pskip=0 / chroma_qp_offset=0 / threads=6 / sliced_threads=0 / nr=0 / decimate=1 / interlaced=0 / bluray_compat=0 / constrained_intra=0 / bframes=6 / b_pyramid=2 / b_adapt=2 / b_bias=0 / direct=3 / weightb=1 / open_gop=0 / weightp=2 / keyint=250 / keyint_min=25 / scenecut=40 / intra_refresh=0 / rc_lookahead=40 / rc=crf / mbtree=0 / crf=18.0 / qcomp=0.60 / qpmin=10 / qpmax=51 / qpstep=4 / vbv_maxrate=20000 / vbv_bufsize=20000 / crf_max=0.0 / nal_hrd=none / ip_ratio=1.40 / pb_ratio=1.30 / aq=1:1.00
Language : Korean

Audio #1
ID : 2
Format : AC-3
Format/Info : Audio Coding 3
Mode extension : CM (complete main)
Codec ID : A_AC3
Duration : 1h 59mn
Bit rate mode : Constant
Bit rate : 384 Kbps
Channel(s) : 6 channels
Channel positions : Front: L C R, Side: L R, LFE
Sampling rate : 48.0 KHz
Bit depth : 16 bits
Compression mode : Lossy
Stream size : 329 MiB (8%)
Title : AC3 5.1 @ 384 kbps - Многоголосый закадровый, R5
Language : Russian

Audio #2
ID : 3
Format : AC-3
Format/Info : Audio Coding 3
Mode extension : CM (complete main)
Codec ID : A_AC3
Duration : 1h 59mn
Bit rate mode : Constant
Bit rate : 384 Kbps
Channel(s) : 6 channels
Channel positions : Front: L C R, Side: L R, LFE
Sampling rate : 48.0 KHz
Bit depth : 16 bits
Compression mode : Lossy
Stream size : 329 MiB (8%)
Title : AC3 5.1 @ 384 kbps - Одноголосый закадровый, Ю.Сербин
Language : Russian

Audio #3
ID : 4
Format : AC-3
Format/Info : Audio Coding 3
Mode extension : CM (complete main)
Codec ID : A_AC3
Duration : 1h 59mn
Bit rate mode : Constant
Bit rate : 384 Kbps
Channel(s) : 6 channels
Channel positions : Front: L C R, Side: L R, LFE
Sampling rate : 48.0 KHz
Bit depth : 16 bits
Compression mode : Lossy
Stream size : 329 MiB (8%)
Title : AC3 5.1 @ 384 kbps
Language : Korean

Text #1
ID : 5
Format : UTF-8
Codec ID : S_TEXT/UTF8
Codec ID/Info : UTF-8 Plain Text
Title : Ю.Сербин
Language : Russian

Text #2
ID : 6
Format : UTF-8
Codec ID : S_TEXT/UTF8
Codec ID/Info : UTF-8 Plain Text
Title : R5
Language : Russian

Text #3
ID : 7
Format : UTF-8
Codec ID : S_TEXT/UTF8
Codec ID/Info : UTF-8 Plain Text
Language : English

Menu
00:00:00.000 : en:01. The Guardian
00:10:32.200 : en:02. 4885
00:20:23.880 : en:03. Mi-jin
00:27:27.720 : en:04. You're Dead Meat
00:39:54.200 : en:05. Trouble At The Station
00:48:19.200 : en:06. Running Out Of Time
00:59:57.800 : en:07. Insufficient Evidence
01:12:20.200 : en:08. Impotent
01:20:16.600 : en:09. Where Is She?
01:29:43.960 : en:10. He's Out
01:40:47.120 : en:11. Look After The Kid
01:45:26.320 : en:12. Park Dong-won

Цитата:
- Дорожка #1 получена наложением выделенных голосов на центральный канал оригинальной дорожки, за что больше спасибо Anatolech.
- За дорожку #3 спасибо AnryV. Голос Сербина выкуплен с DVD100 силами d0ber.maNN, Serene, bilbo_bagginz.
- Субтитры по переводу Сербина набиты MaLLIeHbKa. Большое спасибо ей за это.


Лучшая онлайн игра!


Публикация материалов сайта на сторонних ресурсах возможна только в неизменном виде.


Обсудить релиз на форуме

Вас также может заинтересовать:


  • 4
 (Голосов: 3)


Распечатать новость на принтере Триллер, Драма
Обновлено: 22.09.2011 - 12:19