Вас Приветствует Релиз-группа HQCLUB


Помощь ресурсу, очень ВАЖНО!!!



.


WELCOME
Добро пожаловать в наше интернет - сообщество!

Всех нас объединяет одна страсть - страсть к высококачественному кино. А это наш сайт. Ежедневно здесь мы публикуем десятки качественных, свежих, а порой и эксклюзивных релизов, которые Вы можете скачать совершенно бесплатно и без каких-либо регистраций. Посему рекомендуем Вам добавить HQClub себе в закладки, а также подписаться на нашу ленту новостей, чтобы всегда быть в курсе всех событий. Ну а если Вы такой же синий фил, как и мы, то милости просим на наш форум. И в заключение, попробуйте зарегистрироваться, ведь не так это и сложно и займет всего лишь пару минут! Вот увидите, Вам у нас понравится и Вы вольетесь в наш дружный коллектив! Ну а пока - осматривайтесь = )
Мы рады Вам !





Служанка / The Housemaid / Hanyo (2010) BDRip-AVC

Оформил: DaniLch | 6 сентября 2011 - 21:43:27 | Обращений: 2989 {bookmarks_news}

http//lostpic.net/images/9ee7ba758531444de4ba66e0ab9b73.png

Название: Служанка
Оригинальное название: Hanyo
Год выхода: 2010
Жанр: триллер, драма
Режиссер: Им Сан Су / Sang-soo Im
В ролях: Чжон До Ён, Ли Чон Чэ, Со У, Юн Йео Джонг, Seo-Hyeon Ahn

О фильме: Пока город существует в своем привычном ночном ритме, молодая девушка кончает жизнь самоубийством, спрыгнув с высоты прямо на мостовую. А ранее престарелая дама нанимает ее в богатый дом, где они вместе будут прислуживать семье, состоящей из мужа, беременной двойней жены и развитого не по годам ребенка. Поначалу все идет замечательно, новая работница вписывается в семью без малейших проблем, пока пристальный интерес к ней не начинает испытывать хозяин дома.

http//www.kinopoisk.ru/rating/446140.gif

Релиз от - http//hqclub.net/images/hqclub.png
Автор рипа: DaniLch

Выпущено: http//lostpic.net/images/714f7b59d42bdb4fb4eb4d56e7276af6.gif Южная Корея | Sidus FNH-Benex Cinema Fund 1
Продолжительность: 01:47:30

Источник: BD-Remux 1080p by DaniLch
Контейнер: MKV
Видео: 1056x450 (2.35:1), 23.976 fps, x264@L4.0, crf, ~2102 kbps
Аудио #1: Russian: 48 kHz, AC3 Dolby Digital, 3/2 (L,C,R,l,r) + LFE ch, ~448 kbps |Многоголосый закадровый, R5 «Новый Диск»|
Аудио #2: Korean: 48 kHz, AC3 Dolby Digital, 3/2 (L,C,R,l,r) + LFE ch, ~448 kbps
Субтитры: русские
Размер: 2.29 Gb

http//lostpic.net/images/8ac58c47168f25026be800d519b61694.png

http//lostpic.net/thumbs/17bf283ab1dd5c2c8ba9efa8022cb0fd.png http//lostpic.net/thumbs/4679a46f9e414ea70f9fc87ae38bf6d1.png http//lostpic.net/thumbs/7cc5a24c96c33d89c9cd60ee7b7ea6.png http//lostpic.net/thumbs/fbfa4ea50751217b44e1aac7b4f7b9d3.png

http//bt.hqclub.net/files/ok.png Торрент: Служанка / The Housemaid / Hanyo (2010) BDRip-AVC

MediaInfo
General
Complete name : Sluzhanka.2011.BDRip-AVC.H264.AC3.-HQCLUB.mkv
Format : Matroska
File size : 2.30 GiB
Duration : 1h 47mn
Overall bit rate : 3 059 Kbps
Movie name : Rip by DaniLch | HQCLUB.NET
Encoded date : UTC 2011-09-06 17:05:58
Writing application : mkvmerge v4.9.1 ('Ich will') built on Jul 11 2011 23:53:15
Writing library : libebml v1.2.1 + libmatroska v1.1.1

Video
ID : 1
Format : AVC
Format/Info : Advanced Video Codec
Format profile : High@L4.0
Format settings, CABAC : Yes
Format settings, ReFrames : 7 frames
Codec ID : V_MPEG4/ISO/AVC
Duration : 1h 47mn
Bit rate : 2 102 Kbps
Width : 1 056 pixels
Height : 450 pixels
Display aspect ratio : 2.35:1
Frame rate : 23.976 fps
Color space : YUV
Chroma subsampling : 4:2:0
Bit depth : 8 bits
Scan type : Progressive
Bits/(Pixel*Frame) : 0.185
Stream size : 1.58 GiB (69%)
Writing library : x264 core 116 r2074 2641b9e
Encoding settings : cabac=1 / ref=7 / deblock=1:-3:-2 / analyse=0x3:0x113 / me=umh / subme=10 / psy=1 / psy_rd=1.00:0.10 / mixed_ref=1 / me_range=24 / chroma_me=1 / trellis=2 / 8x8dct=1 / cqm=0 / deadzone=21,11 / fast_pskip=0 / chroma_qp_offset=0 / threads=6 / sliced_threads=0 / nr=0 / decimate=1 / interlaced=0 / bluray_compat=0 / constrained_intra=0 / bframes=6 / b_pyramid=2 / b_adapt=2 / b_bias=0 / direct=3 / weightb=1 / open_gop=0 / weightp=2 / keyint=250 / keyint_min=23 / scenecut=40 / intra_refresh=0 / rc_lookahead=40 / rc=crf / mbtree=0 / crf=16.5 / qcomp=0.60 / qpmin=10 / qpmax=51 / qpstep=4 / vbv_maxrate=20000 / vbv_bufsize=25000 / crf_max=0.0 / nal_hrd=none / ip_ratio=1.40 / pb_ratio=1.30 / aq=1:0.80
Language : Korean

Audio #1
ID : 2
Format : AC-3
Format/Info : Audio Coding 3
Mode extension : CM (complete main)
Codec ID : A_AC3
Duration : 1h 47mn
Bit rate mode : Constant
Bit rate : 448 Kbps
Channel(s) : 6 channels
Channel positions : Front: L C R, Side: L R, LFE
Sampling rate : 48.0 KHz
Bit depth : 16 bits
Compression mode : Lossy
Stream size : 344 MiB (15%)
Language : Russian

Audio #2
ID : 3
Format : AC-3
Format/Info : Audio Coding 3
Mode extension : CM (complete main)
Codec ID : A_AC3
Duration : 1h 47mn
Bit rate mode : Constant
Bit rate : 448 Kbps
Channel(s) : 6 channels
Channel positions : Front: L C R, Side: L R, LFE
Sampling rate : 48.0 KHz
Bit depth : 16 bits
Compression mode : Lossy
Stream size : 344 MiB (15%)
Language : Korean

Text
ID : 4
Format : UTF-8
Codec ID : S_TEXT/UTF8
Codec ID/Info : UTF-8 Plain Text
Language : Russian

Menu
00:00:00.000 : en:00:00:00.000
00:00:10.427 : en:00:00:10.427
00:10:52.443 : en:00:10:52.443
00:20:06.622 : en:00:20:06.622
00:30:48.638 : en:00:30:48.638
00:39:23.944 : en:00:39:23.944
00:48:18.562 : en:00:48:18.562
00:57:52.594 : en:00:57:52.594
01:07:12.319 : en:01:07:12.319
01:16:36.550 : en:01:16:36.550
01:24:28.563 : en:01:24:28.563
01:33:13.546 : en:01:33:13.546
01:43:19.318 : en:01:43:19.318


Лучшая онлайн игра!


Публикация материалов сайта на сторонних ресурсах возможна только в неизменном виде.


Обсудить релиз на форуме

Вас также может заинтересовать:


  • 3
 (Голосов: 6)


Распечатать новость на принтере Триллер, Драма