Вас Приветствует Релиз-группа HQCLUB


Помощь ресурсу, очень ВАЖНО!!!



.


WELCOME
Добро пожаловать в наше интернет - сообщество!

Всех нас объединяет одна страсть - страсть к высококачественному кино. А это наш сайт. Ежедневно здесь мы публикуем десятки качественных, свежих, а порой и эксклюзивных релизов, которые Вы можете скачать совершенно бесплатно и без каких-либо регистраций. Посему рекомендуем Вам добавить HQClub себе в закладки, а также подписаться на нашу ленту новостей, чтобы всегда быть в курсе всех событий. Ну а если Вы такой же синий фил, как и мы, то милости просим на наш форум. И в заключение, попробуйте зарегистрироваться, ведь не так это и сложно и займет всего лишь пару минут! Вот увидите, Вам у нас понравится и Вы вольетесь в наш дружный коллектив! Ну а пока - осматривайтесь = )
Мы рады Вам !





Заражение / Contagion (2011) BDRip-AVC

Оформил: Sky™ | 27 января 2012 - 19:44:04 | Комментариев: 1 | Обращений: 2293 {bookmarks_news}

http//lostpic.net/images/662eaffbaa5ec6cd19ce74717c5ce738.png

Информация о фильме:
Название: Заражение
Оригинальное название: Contagion
Год выхода: 2011
Жанр: триллер, драма

Режиссер: Стивен Содерберг

В ролях: Марион Котийяр, Мэтт Дэймон, Лоренс Фишбёрн, Джуд Лоу, Гвинет Пэлтроу, Кейт Уинслет, Брайан Крэнстон, Дженнифер Эль, Санаа Лэтэн, Тинг Яу Цуй

О фильме: Международная организация врачей совместно с Центром по контролю и профилактике заболеваний США пытается помешать распространению смертельного вируса.

«Скоро мир будет инфицирован.»



http//www.kinopoisk.ru/rating/501821.gif

Релиз от - http//hqclub.net/images/hqclub.png
Автор рипа: Sky™

Выпущено: США, ОАЭ (Warner Bros.)
Продолжительность: 01:46:25
Перевод: Профессиональный (полное дублирование) BD CEE + Оригинальная звуковая дорожка (английский)
Субтитры: Русские (полные, форсированные), Английские

Сохранены оригинальные чаптеры, как на блюрей



Файл:
Формат: MKV
Качество: BDRip (источник: HANSMER / Blu-Ray Remux / 1080p)
Видео: 1036x582 (1.77:1), 23,976 fps, x264@L4.1, 2pass ~2500 kbps avg, 0.173 bit/pixel
Аудио #1: 48 kHz, AC3 Dolby Digital, 3/2 (L,C,R,l,r) + LFE ch, 448.00 kbps avg (DUB) BD CEE
Аудио #2: 48 kHz, AC3 Dolby Digital, 3/2 (L,C,R,l,r) + LFE ch, 448.00 kbps avg (ENG)
Размер: 2586.36 Mb
http//lostpic.net/images/1b899dddff9c84e7020a856612f5c646.png

http//lostpic.net/thumbs/a9a711d443b70aa09e138e3a5fbd9512.png http//lostpic.net/thumbs/a7b297b9dc00664ceb446b33e96531.png http//lostpic.net/thumbs/bf522d60ad8dfc5e0bf2b5b7096cf05f.png http//lostpic.net/thumbs/412dfd595c1e1285cf15830465f81f.png http//lostpic.net/thumbs/222e2e96f73645b74ddaffcefb95.png
MediaInfo
Полное имя : Zarazhenie.2011.BDRip-AVC.H264.AC3.-HQCLUB.mkv
Формат : Matroska
Версия формата : Version 2
Размер файла : 2,53 Гбайт
Продолжительность : 1 ч. 46 м.
Общий поток : 3398 Кбит/сек
Дата кодирования : UTC 2012-01-27 14:26:28
Программа кодирования : mkvmerge v5.2.1 ('A Far Off Place') built on Jan 2 2012 23:21:10
Библиотека кодирования : libebml v1.2.3 + libmatroska v1.3.0

Видео
Идентификатор : 1
Формат : AVC
Формат/Информация : Advanced Video Codec
Профиль формата : High@L4.1
Параметр CABAC формата : Да
Параметр ReFrames формата : 9 кадров
Идентификатор кодека : V_MPEG4/ISO/AVC
Продолжительность : 1 ч. 46 м.
Битрейт : 2500 Кбит/сек
Ширина : 1036 пикселей
Высота : 582 пикселя
Соотношение сторон : 16:9
Частота кадров : 23,976 кадра/сек
Цветовое пространство : YUV
Субдискретизация насыщенности : 4:2:0
Битовая глубина : 8 бит
Тип развёртки : Прогрессивная
Бит/(Пиксели*Кадры) : 0.173
Размер потока : 1,81 Гбайт (72%)
Заголовок : Заражение / Contagion (2011) BDRip-AVC by Sky™ | HQCLUB
Библиотека кодирования : x264 core 116 r2074 2641b9e
Настройки программы : cabac=1 / ref=9 / deblock=1:-3:-3 / analyse=0x3:0x113 / me=umh / subme=10 / psy=1 / psy_rd=1.00:0.00 / mixed_ref=1 / me_range=32 / chroma_me=1 / trellis=2 / 8x8dct=1 / cqm=0 / deadzone=21,11 / fast_pskip=1 / chroma_qp_offset=-2 / threads=3 / sliced_threads=0 / nr=0 / decimate=1 / interlaced=0 / bluray_compat=0 / constrained_intra=0 / bframes=9 / b_pyramid=2 / b_adapt=2 / b_bias=0 / direct=1 / weightb=1 / open_gop=0 / weightp=2 / keyint=250 / keyint_min=23 / scenecut=40 / intra_refresh=0 / rc=2pass / mbtree=0 / bitrate=2500 / ratetol=1.0 / qcomp=0.60 / qpmin=10 / qpmax=51 / qpstep=4 / cplxblur=20.0 / qblur=0.5 / ip_ratio=1.40 / pb_ratio=1.30 / aq=1:0.90
Язык : English

Аудио #1
Идентификатор : 2
Формат : AC-3
Формат/Информация : Audio Coding 3
Расширение режима : CM (complete main)
Идентификатор кодека : A_AC3
Продолжительность : 1 ч. 46 м.
Вид битрейта : Постоянный
Битрейт : 448 Кбит/сек
Каналы : 6 каналов
Расположение каналов : Front: L C R, Side: L R, LFE
Частота : 48,0 КГц
Битовая глубина : 16 бит
Метод сжатия : С потерями
Размер потока : 341 Мбайт (13%)
Заголовок : Дубляж (BD CEE) AC3 5.1 @ 448 kbps
Язык : Russian

Аудио #2
Идентификатор : 3
Формат : AC-3
Формат/Информация : Audio Coding 3
Расширение режима : CM (complete main)
Идентификатор кодека : A_AC3
Продолжительность : 1 ч. 46 м.
Вид битрейта : Постоянный
Битрейт : 448 Кбит/сек
Каналы : 6 каналов
Расположение каналов : Front: L C R, Side: L R, LFE
Частота : 48,0 КГц
Битовая глубина : 16 бит
Метод сжатия : С потерями
Размер потока : 341 Мбайт (13%)
Заголовок : Оригинал AC3 5.1 @ 448 kbps
Язык : English

Текст #1
Идентификатор : 4
Формат : UTF-8
Идентификатор кодека : S_TEXT/UTF8
Идентификатор кодека/Информация : UTF-8 Plain Text
Заголовок : Forced
Язык : Russian

Текст #2
Идентификатор : 5
Формат : UTF-8
Идентификатор кодека : S_TEXT/UTF8
Идентификатор кодека/Информация : UTF-8 Plain Text
Заголовок : Full
Язык : Russian

Текст #3
Идентификатор : 6
Формат : UTF-8
Идентификатор кодека : S_TEXT/UTF8
Идентификатор кодека/Информация : UTF-8 Plain Text
Заголовок : Full
Язык : English

Меню
00:00:00.000 : en:Chapter 1
00:04:33.356 : en:Chapter 2
00:07:26.780 : en:Chapter 3
00:11:08.960 : en:Chapter 4
00:14:20.818 : en:Chapter 5
00:16:01.043 : en:Chapter 6
00:17:44.814 : en:Chapter 7
00:20:15.464 : en:Chapter 8
00:22:23.634 : en:Chapter 9
00:24:11.909 : en:Chapter 10
00:26:55.781 : en:Chapter 11
00:30:31.997 : en:Chapter 12
00:34:17.097 : en:Chapter 13
00:36:35.026 : en:Chapter 14
00:38:40.735 : en:Chapter 15
00:41:28.236 : en:Chapter 16
00:42:51.068 : en:Chapter 17
00:46:55.146 : en:Chapter 18
00:49:49.403 : en:Chapter 19
00:52:00.951 : en:Chapter 20
00:53:57.609 : en:Chapter 21
00:57:30.364 : en:Chapter 22
01:00:54.234 : en:Chapter 23
01:03:22.716 : en:Chapter 24
01:07:42.392 : en:Chapter 25
01:10:21.259 : en:Chapter 26
01:12:34.225 : en:Chapter 27
01:15:35.322 : en:Chapter 28
01:18:10.227 : en:Chapter 29
01:22:34.032 : en:Chapter 30
01:25:23.410 : en:Chapter 31
01:31:28.358 : en:Chapter 32
01:34:35.295 : en:Chapter 33
01:36:10.556 : en:Chapter 34
01:41:28.332 : en:Chapter 35

log
---[NoImage] x264 [info]: frame I:1130 Avg QP:13.59 size: 83735
---[NoImage] x264 [info]: frame P:35704 Avg QP:14.53 size: 27826
---[NoImage] x264 [info]: frame B:116254 Avg QP:16.21 size: 7802
---[NoImage] x264 [info]: consecutive B-frames: 2.0% 2.9% 5.1% 50.3% 9.3% 14.3% 4.1% 11.2% 0.5% 0.2%
---[NoImage] x264 [info]: mb I I16..4: 9.5% 72.7% 17.8%
---[NoImage] x264 [info]: mb P I16..4: 0.6% 7.7% 1.0% P16..4: 30.4% 28.6% 17.6% 0.0% 0.0% skip:14.1%
---[NoImage] x264 [info]: mb B I16..4: 0.0% 0.4% 0.1% B16..8: 31.8% 13.7% 4.3% direct: 4.8% skip:44.9% L0:43.4% L1:44.7% BI:11.9%
---[NoImage] x264 [info]: 8x8 transform intra:80.3% inter:52.4%
---[NoImage] x264 [info]: coded y,uvDC,uvAC intra: 89.6% 91.8% 80.1% inter: 22.0% 22.5% 10.0%
---[NoImage] x264 [info]: i16 v,h,dc,p: 41% 11% 4% 44%
---[NoImage] x264 [info]: i8 v,h,dc,ddl,ddr,vr,hd,vl,hu: 16% 12% 7% 8% 11% 11% 12% 11% 12%
---[NoImage] x264 [info]: i4 v,h,dc,ddl,ddr,vr,hd,vl,hu: 18% 12% 3% 8% 14% 13% 12% 10% 11%
---[NoImage] x264 [info]: i8c dc,h,v,p: 45% 20% 19% 16%
---[NoImage] x264 [info]: Weighted P-Frames: Y:3.8% UV:2.4%
---[NoImage] x264 [info]: ref P L0: 47.2% 8.0% 18.2% 6.5% 6.0% 4.4% 4.4% 2.4% 2.7% 0.2% 0.0%
---[NoImage] x264 [info]: ref B L0: 73.0% 12.3% 5.5% 3.1% 2.3% 2.1% 1.2% 0.5%
---[NoImage] x264 [info]: ref B L1: 93.8% 6.2%
---[NoImage] x264 [info]: kb/s:2499.77
---[NoImage] encoded 153088 frames, 2.44 fps, 2499.77 kb/s

Ссылки для скачивания:

http//bt.hqclub.net/files/ok.png Торрент: Заражение / Contagion (2011) BDRip-AVC

Лучшая онлайн игра!


Публикация материалов сайта на сторонних ресурсах возможна только в неизменном виде.


Обсудить релиз на форуме

Вас также может заинтересовать:


  • 4
 (Голосов: 10)


Распечатать новость на принтере Триллер, Драма
Обновлено: 29.01.2012 - 17:47

КОММЕНТАРИИ

 №1. zeffc63

Статус: Кинокритик | Новостей: 0 | Комментариев: 1096
zeffc63 Если интересно, то здесь все о AVC : http://ru.wikipedia.org/wiki/H.264
~~~

27.01.2012 - 23:33   цитировать