Вас Приветствует Релиз-группа HQCLUB


Помощь ресурсу, очень ВАЖНО!!!



.


WELCOME
Добро пожаловать в наше интернет - сообщество!

Всех нас объединяет одна страсть - страсть к высококачественному кино. А это наш сайт. Ежедневно здесь мы публикуем десятки качественных, свежих, а порой и эксклюзивных релизов, которые Вы можете скачать совершенно бесплатно и без каких-либо регистраций. Посему рекомендуем Вам добавить HQClub себе в закладки, а также подписаться на нашу ленту новостей, чтобы всегда быть в курсе всех событий. Ну а если Вы такой же синий фил, как и мы, то милости просим на наш форум. И в заключение, попробуйте зарегистрироваться, ведь не так это и сложно и займет всего лишь пару минут! Вот увидите, Вам у нас понравится и Вы вольетесь в наш дружный коллектив! Ну а пока - осматривайтесь = )
Мы рады Вам !





Уцелевший / Lone Survivor (2013) BDRip-AVC

Оформил: Elheym | 9 августа 2014 - 12:16:31 | Обращений: 927 {bookmarks_news}

http//lostpic.net/orig_images/4/4/3/4436ef724d87fc18b22660bff12da55e.jpg

Информация о фильме:
Название: Уцелевший
Оригинальное название: Lone Survivor
Год выхода: 2013
Жанр: военный, боевик, драма
Режиссер: Питер Берг
В ролях: Марк Уолберг, Тейлор Китч, Эмиль Хирш, Бен Фостер, Юсуф Азами, Али Сулиман, Эрик Бана, Александр Людвиг, Рич Тинг, Дэн Билзериан

О фильме: Афганистан, 2005 год. Команда американских спецназовцев получает задание обезвредить известного лидера талибов Ахмада Шаха. Попав в ловушку, солдаты принимают неравный кровопролитный бой, и все они погибают героями. Все, кроме одного. Для уцелевшего Маркуса Латтрела бой только начинается: он любой ценой должен выжить и пробраться к «своим». Когда почти всё потеряно, ему решается помочь Гулаб — мирный человек, ненавидящий войну.

«Live to Tell the Story»



http//rating.kinopoisk.ru/462356.gif http//tracker.0day.kiev.ua/imdb/imdb_tt1091191.gif

Релиз от - http//hqclub.net/images/hqclub.png
Автор рипа: Elheym

Выпущено: США, Emmett/Furla Films, Envision Entertainment, Film 44
Продолжительность: 02:01:21
Перевод: Профессиональный (полное дублирование) + Оригинал (английский)
Субтитры: русские (полные), английские (полные)
Главы: присутствуют, сохранены оригинальные

Дополнительные аудиодорожки:
+ Авторский (одноголосый, закадровый) А. Гаврилов

Файл:
Формат: MKV
Качество: BDRip-AVC (источник: http//lostpic.net/images/20a38122bcc5994b3cdae6e4b4b0.png / Blu-ray Disc EUR [NOR] / 1080p)
Видео: 1024x426 (2.40:1), 23.976 fps, MPEG-4 AVC, ~2668 kbps avg, 0.255 bit/pixel
Аудио #1: 48 kHz, AC3 Dolby Digital, 3/2 (L,C,R,l,r) + LFE ch, ~384 kbps (DUB)
Аудио #2: 48 kHz, AC3 Dolby Digital, 3/2 (L,C,R,l,r) + LFE ch, ~384 kbps (ENG)
Аудио #3: 48 kHz, AC3 Dolby Digital, 3/2 (L,C,R,l,r) + LFE ch, ~448 kbps (AVO.GAVRILOV) (отдельно)
Размер: 2.91 GB
Сэмпл: скачать

http//lostpic.net/thumbs_images/2/d/d/2ddbd882c8ef07818a8fee40ad2105.png http//lostpic.net/thumbs_images/e/e/0/ee0b69e32d234b5c5e2de0c316138187.png http//lostpic.net/thumbs_images/0/9/3/093732a5fd938e0ed2bb38e5ff8711f1.png http//lostpic.net/thumbs_images/a/2/9/a29d43330c78b868a24eb23a2c23d1.png http//lostpic.net/thumbs_images/4/e/5/4e5918d254b1c2a74e5009a25d62fba3.png http//lostpic.net/thumbs_images/9/0/c/90cb9aeee90bca3188192cb792a8d4c7.png

"MediaInfo"

Уникальный идентификатор : 235868869115563082796212563538527991046 (0xB172B119A9D161BE87AA851FD3593506)
Полное имя : Lone.Survivor.2013.DUAL.BDRip-AVC.x264.AC3.-HQCLUB.mkv
Формат : Matroska
Версия формата : Version 2
Размер файла : 2,91 Гбайт
Продолжительность : 2 ч. 1 м.
Общий поток : 3436 Кбит/сек
Дата кодирования : UTC 2014-08-09 07:12:11
Программа кодирования : mkvmerge v5.2.0 ('I can't explain') built on Dec 18 2011 18:12:03
Библиотека кодирования : libebml v1.2.3 + libmatroska v1.3.0

Видео
Идентификатор : 1
Формат : AVC
Формат/Информация : Advanced Video Codec
Профиль формата : High@L4.1
Параметр CABAC формата : Да
Параметр ReFrames формата : 12 кадров
Идентификатор кодека : V_MPEG4/ISO/AVC
Продолжительность : 2 ч. 1 м.
Битрейт : 2668 Кбит/сек
Ширина : 1024 пикселя
Высота : 426 пикселей
Соотношение сторон : 2,40:1
Режим частоты кадров : Постоянный
Частота кадров : 23,976 кадра/сек
Цветовое пространство : YUV
Субдискретизация насыщенности : 4:2:0
Битовая глубина : 8 бит
Тип развёртки : Прогрессивная
Бит/(Пиксели*Кадры) : 0.255
Размер потока : 2,20 Гбайт (76%)
Заголовок : Уцелевший / Lone Survivor (2013) BDRip-AVC by HQCLUB [Elheym]
Библиотека кодирования : x264 core 142 r2453 ea0ca51
Настройки программы : cabac=1 / ref=12 / deblock=1:-3:-2 / analyse=0x3:0x113 / me=umh / subme=11 / psy=1 / psy_rd=1.00:0.00 / mixed_ref=1 / me_range=32 / chroma_me=1 / trellis=2 / 8x8dct=1 / cqm=0 / deadzone=21,11 / fast_pskip=1 / chroma_qp_offset=-4 / threads=6 / lookahead_threads=1 / sliced_threads=0 / nr=0 / decimate=1 / interlaced=0 / bluray_compat=0 / constrained_intra=0 / bframes=13 / b_pyramid=2 / b_adapt=2 / b_bias=0 / direct=3 / weightb=1 / open_gop=0 / weightp=2 / keyint=240 / keyint_min=23 / scenecut=40 / intra_refresh=0 / rc_lookahead=40 / rc=2pass / mbtree=1 / bitrate=2668 / ratetol=1.0 / qcomp=0.60 / qpmin=10 / qpmax=69 / qpstep=4 / cplxblur=20.0 / qblur=0.5 / vbv_maxrate=50000 / vbv_bufsize=62500 / nal_hrd=none / filler=0 / ip_ratio=1.40 / aq=1:0.90
Язык : English
Default : Да
Forced : Нет

Аудио #1
Идентификатор : 2
Формат : AC-3
Формат/Информация : Audio Coding 3
Расширение режима : CM (complete main)
Параметр Endianness формата : Big
Идентификатор кодека : A_AC3
Продолжительность : 2 ч. 1 м.
Вид битрейта : Постоянный
Битрейт : 384 Кбит/сек
Каналы : 6 каналов
Расположение каналов : Front: L C R, Side: L R, LFE
Частота : 48,0 КГц
Битовая глубина : 16 бит
Метод сжатия : С потерями
Размер потока : 333 Мбайт (11%)
Заголовок : АС3 5.1 @ 384 kbps - Dub
Язык : Russian
Default : Нет
Forced : Нет

Аудио #2
Идентификатор : 3
Формат : AC-3
Формат/Информация : Audio Coding 3
Расширение режима : CM (complete main)
Параметр Endianness формата : Big
Идентификатор кодека : A_AC3
Продолжительность : 2 ч. 1 м.
Вид битрейта : Постоянный
Битрейт : 384 Кбит/сек
Каналы : 6 каналов
Расположение каналов : Front: L C R, Side: L R, LFE
Частота : 48,0 КГц
Битовая глубина : 16 бит
Метод сжатия : С потерями
Размер потока : 333 Мбайт (11%)
Заголовок : АС3 5.1 @ 384 kbps - Original
Язык : English
Default : Нет
Forced : Нет

Текст #1
Идентификатор : 4
Формат : UTF-8
Идентификатор кодека : S_TEXT/UTF8
Идентификатор кодека/Информация : UTF-8 Plain Text
Заголовок : Full
Язык : Russian
Default : Нет
Forced : Нет

Текст #2
Идентификатор : 5
Формат : UTF-8
Идентификатор кодека : S_TEXT/UTF8
Идентификатор кодека/Информация : UTF-8 Plain Text
Заголовок : Full
Язык : English
Default : Нет
Forced : Нет

Меню
00:00:00.000 : :Chapter 01
00:03:43.181 : :Chapter 02
00:12:39.550 : :Chapter 03
00:20:02.492 : :Chapter 04
00:26:39.764 : :Chapter 05
00:33:08.236 : :Chapter 06
00:39:37.208 : :Chapter 07
00:45:02.824 : :Chapter 08
00:50:11.174 : :Chapter 09
00:54:28.181 : :Chapter 10
01:01:20.301 : :Chapter 11
01:08:44.537 : :Chapter 12
01:15:54.966 : :Chapter 13
01:20:48.635 : :Chapter 14
01:26:12.457 : :Chapter 15
01:31:18.598 : :Chapter 16
01:38:46.921 : :Chapter 17
01:42:21.218 : :Chapter 18
01:52:00.004 : :Chapter 19
01:56:46.124 : :Chapter 20
02:01:16.018 : :Chapter 21

"x264 log"

x264 [info]: frame I:1448 Avg QP:15.29 size: 86754
x264 [info]: frame P:53893 Avg QP:18.75 size: 25636
x264 [info]: frame B:119225 Avg QP:21.75 size: 7712

x264 [info]: consecutive B-frames: 9.4% 8.1% 14.7% 26.0% 15.0% 14.6% 4.2% 3.0% 1.2% 1.2% 0.7% 0.7% 0.4% 0.9%

x264 [info]: ref P L0: 55.1% 15.6% 11.2% 4.8% 3.1% 2.7% 2.0% 1.4% 1.1% 1.0% 0.8% 0.8% 0.3% 0.0%
x264 [info]: ref B L0: 80.1% 8.6% 4.2% 1.9% 1.5% 1.1% 1.0% 0.6% 0.5% 0.3% 0.2%
x264 [info]: ref B L1: 93.8% 6.2%


Ссылки для скачивания:

http//bt.hqclub.net/files/ok.png Торрент: Уцелевший / Lone Survivor (2013) BDRip-AVC

Лучшая онлайн игра!


Публикация материалов сайта на сторонних ресурсах возможна только в неизменном виде.


Обсудить релиз на форуме

Вас также может заинтересовать:


  • 3
 (Голосов: 3)


Распечатать новость на принтере Военный, Боевик, Драма