Вас Приветствует Релиз-группа HQCLUB


Помощь ресурсу, очень ВАЖНО!!!



.


WELCOME
Добро пожаловать в наше интернет - сообщество!

Всех нас объединяет одна страсть - страсть к высококачественному кино. А это наш сайт. Ежедневно здесь мы публикуем десятки качественных, свежих, а порой и эксклюзивных релизов, которые Вы можете скачать совершенно бесплатно и без каких-либо регистраций. Посему рекомендуем Вам добавить HQClub себе в закладки, а также подписаться на нашу ленту новостей, чтобы всегда быть в курсе всех событий. Ну а если Вы такой же синий фил, как и мы, то милости просим на наш форум. И в заключение, попробуйте зарегистрироваться, ведь не так это и сложно и займет всего лишь пару минут! Вот увидите, Вам у нас понравится и Вы вольетесь в наш дружный коллектив! Ну а пока - осматривайтесь = )
Мы рады Вам !





Охотники за сокровищами / The Monuments Men (2014) BDRip-AVC

Оформил: Elheym | 19 июля 2014 - 17:01:58 | Комментариев: 2 | Обращений: 1731 {bookmarks_news}

http//lostpic.net/orig_images/4/a/4/4a4d3c4b25247b60f8d199bc9cb0769b.jpg

Информация о фильме:
Название: Охотники за сокровищами
Оригинальное название: The Monuments Men
Год выхода: 2014
Жанр: военный, драма, комедия
Режиссер: Джордж Клуни
В ролях: Джордж Клуни, Мэтт Дэймон, Билл Мюррей, Джон Гудман, Жан Дюжарден, Боб Бэлабан, Хью Бонневилль, Кейт Бланшетт, Димитрий Леонидас, Юстус фон Донаньи

О фильме: Фильм основан на реальных событиях — величайшей охоте на сокровища в истории. Во время Второй мировой войны команда из искусствоведов и хранителей музеев объединяется, чтобы спасти известные произведения искусства, похищенные нацистами, прежде чем те успеют их уничтожить.

«Крупнейшее ограбление в истории искусства»



http//rating.kinopoisk.ru/6621.gif http//tracker.0day.kiev.ua/imdb/imdb_tt2177771.gif

Релиз от - http//hqclub.net/images/hqclub.png
Автор рипа: Elheym

Выпущено: США, Германия, Columbia Pictures, Fox 2000 Pictures, Smokehouse Pictures
Продолжительность: 01:58:07
Перевод: Профессиональный (полное дублирование) + Дубляж (украинский) + Оригинал (английский)
Субтитры: русские (полные, форсированные), украинские (полные), английские (полные, форсированные, SDH, SDH-Colored)
Главы: присутствуют, сохранены оригинальные

Файл:
Формат: MKV
Качество: BDRip-AVC (источник: http//lostpic.net/images/20a38122bcc5994b3cdae6e4b4b0.png / Blu-ray Disc EUR / 1080p)
Видео: 1024x428 (2.40:1), 23.976 fps, MPEG-4 AVC, ~2600 kbps avg, 0.247 bit/pixel
Аудио #1: 48 kHz, AC3 Dolby Digital, 3/2 (L,C,R,l,r) + LFE ch, ~384 kbps (DUB)
Аудио #2: 48 kHz, AC3 Dolby Digital, 3/2 (L,C,R,l,r) + LFE ch, ~384 kbps (UKR.DUB)
Аудио #3: 48 kHz, AC3 Dolby Digital, 3/2 (L,C,R,l,r) + LFE ch, ~384 kbps (ENG)
Размер: 2.91 GB
Сэмпл: скачать

http//lostpic.net/thumbs_images/8/c/6/8c628c3dfb1e850ea9cbbe2bd18501.png http//lostpic.net/thumbs_images/2/6/3/263b378329181ae288b43736208b69c9.png http//lostpic.net/thumbs_images/0/0/4/00437c6a682820aa96fdd2303bca34.png http//lostpic.net/thumbs_images/9/7/8/97804fab7c3ade565443774a305888d2.png http//lostpic.net/thumbs_images/0/6/2/06245c0d93772ce812c8a03e086914b1.png http//lostpic.net/thumbs_images/a/d/6/ad6fa6d4a4bd1a53d1c71f628cba16bb.png

"MediaInfo"

Уникальный идентификатор : 209946398303660687107802878871888995758 (0x9DF2349D04FBFA3DAE435F1916C825AE)
Полное имя : The.Monuments.Men.2014.TRIPLE.BDRip-AVC.x264.AC3.-HQCLUB.mkv
Формат : Matroska
Версия формата : Version 2
Размер файла : 2,91 Гбайт
Продолжительность : 1 ч. 58 м.
Общий поток : 3532 Кбит/сек
Дата кодирования : UTC 2014-07-19 11:51:10
Программа кодирования : mkvmerge v5.2.0 ('I can't explain') built on Dec 18 2011 18:12:03
Библиотека кодирования : libebml v1.2.3 + libmatroska v1.3.0

Видео
Идентификатор : 1
Формат : AVC
Формат/Информация : Advanced Video Codec
Профиль формата : High@L4.1
Параметр CABAC формата : Да
Параметр ReFrames формата : 16 кадров
Идентификатор кодека : V_MPEG4/ISO/AVC
Продолжительность : 1 ч. 58 м.
Битрейт : 2310 Кбит/сек
Номинальный битрейт : 2600 Кбит/сек
Ширина : 1024 пикселя
Высота : 428 пикселей
Соотношение сторон : 2,40:1
Режим частоты кадров : Постоянный
Частота кадров : 23,976 кадра/сек
Цветовое пространство : YUV
Субдискретизация насыщенности : 4:2:0
Битовая глубина : 8 бит
Тип развёртки : Прогрессивная
Бит/(Пиксели*Кадры) : 0.220
Размер потока : 1,91 Гбайт (65%)
Заголовок : Охотники за сокровищами / The Monuments Men (2014) BDRip-AVC by HQCLUB [Elheym]
Библиотека кодирования : x264 core 142 r2431 ac76440
Настройки программы : cabac=1 / ref=16 / deblock=1:-3:-3 / analyse=0x3:0x113 / me=umh / subme=11 / psy=1 / psy_rd=1.00:0.10 / mixed_ref=1 / me_range=32 / chroma_me=1 / trellis=2 / 8x8dct=1 / cqm=0 / deadzone=21,11 / fast_pskip=1 / chroma_qp_offset=-5 / threads=6 / lookahead_threads=1 / sliced_threads=0 / nr=0 / decimate=1 / interlaced=0 / bluray_compat=0 / constrained_intra=0 / bframes=12 / b_pyramid=2 / b_adapt=2 / b_bias=0 / direct=3 / weightb=1 / open_gop=0 / weightp=2 / keyint=240 / keyint_min=23 / scenecut=40 / intra_refresh=0 / rc_lookahead=40 / rc=2pass / mbtree=1 / bitrate=2600 / ratetol=1.0 / qcomp=0.60 / qpmin=10 / qpmax=69 / qpstep=4 / cplxblur=20.0 / qblur=0.5 / vbv_maxrate=50000 / vbv_bufsize=62500 / nal_hrd=none / filler=0 / ip_ratio=1.40 / aq=1:0.80
Язык : English
Default : Да
Forced : Нет

Аудио #1
Идентификатор : 2
Формат : AC-3
Формат/Информация : Audio Coding 3
Расширение режима : CM (complete main)
Параметр Endianness формата : Big
Идентификатор кодека : A_AC3
Продолжительность : 1 ч. 58 м.
Вид битрейта : Постоянный
Битрейт : 384 Кбит/сек
Каналы : 6 каналов
Расположение каналов : Front: L C R, Side: L R, LFE
Частота : 48,0 КГц
Битовая глубина : 16 бит
Метод сжатия : С потерями
Размер потока : 324 Мбайт (11%)
Заголовок : АС3 5.1 @ 384 kbps - Dub
Язык : Russian
Default : Нет
Forced : Нет

Аудио #2
Идентификатор : 3
Формат : AC-3
Формат/Информация : Audio Coding 3
Расширение режима : CM (complete main)
Параметр Endianness формата : Big
Идентификатор кодека : A_AC3
Продолжительность : 1 ч. 58 м.
Вид битрейта : Постоянный
Битрейт : 384 Кбит/сек
Каналы : 6 каналов
Расположение каналов : Front: L C R, Side: L R, LFE
Частота : 48,0 КГц
Битовая глубина : 16 бит
Метод сжатия : С потерями
Размер потока : 324 Мбайт (11%)
Заголовок : АС3 5.1 @ 384 kbps - Dub
Язык : Ukrainian
Default : Нет
Forced : Нет

Аудио #3
Идентификатор : 4
Формат : AC-3
Формат/Информация : Audio Coding 3
Расширение режима : CM (complete main)
Параметр Endianness формата : Big
Идентификатор кодека : A_AC3
Продолжительность : 1 ч. 58 м.
Вид битрейта : Постоянный
Битрейт : 384 Кбит/сек
Каналы : 6 каналов
Расположение каналов : Front: L C R, Side: L R, LFE
Частота : 48,0 КГц
Битовая глубина : 16 бит
Метод сжатия : С потерями
Размер потока : 324 Мбайт (11%)
Заголовок : АС3 5.1 @ 384 kbps - Original
Язык : English
Default : Нет
Forced : Нет

Текст #1
Идентификатор : 5
Формат : UTF-8
Идентификатор кодека : S_TEXT/UTF8
Идентификатор кодека/Информация : UTF-8 Plain Text
Заголовок : Full
Язык : Russian
Default : Нет
Forced : Нет

Текст #2
Идентификатор : 6
Формат : UTF-8
Идентификатор кодека : S_TEXT/UTF8
Идентификатор кодека/Информация : UTF-8 Plain Text
Заголовок : Forced
Язык : Russian
Default : Нет
Forced : Нет

Текст #3
Идентификатор : 7
Формат : UTF-8
Идентификатор кодека : S_TEXT/UTF8
Идентификатор кодека/Информация : UTF-8 Plain Text
Заголовок : Full
Язык : Ukrainian
Default : Нет
Forced : Нет

Текст #4
Идентификатор : 8
Формат : UTF-8
Идентификатор кодека : S_TEXT/UTF8
Идентификатор кодека/Информация : UTF-8 Plain Text
Заголовок : Full
Язык : English
Default : Нет
Forced : Нет

Текст #5
Идентификатор : 9
Формат : UTF-8
Идентификатор кодека : S_TEXT/UTF8
Идентификатор кодека/Информация : UTF-8 Plain Text
Заголовок : Forced
Язык : English
Default : Нет
Forced : Нет

Текст #6
Идентификатор : 10
Формат : UTF-8
Идентификатор кодека : S_TEXT/UTF8
Идентификатор кодека/Информация : UTF-8 Plain Text
Заголовок : Full SDH
Язык : English
Default : Нет
Forced : Нет

Текст #7
Идентификатор : 11
Формат : UTF-8
Идентификатор кодека : S_TEXT/UTF8
Идентификатор кодека/Информация : UTF-8 Plain Text
Заголовок : Full SDH Colored
Язык : English
Default : Нет
Forced : Нет

Меню
00:00:00.000 : :Chapter 01
00:04:40.571 : :Chapter 03
00:16:00.960 : :Chapter 05
00:20:12.961 : :Chapter 07
00:23:36.456 : :Chapter 09
00:27:11.838 : :Chapter 11
00:31:35.810 : :Chapter 13
00:40:36.976 : :Chapter 15
00:50:39.578 : :Chapter 17
00:53:30.373 : :Chapter 19
00:59:35.446 : :Chapter 21
01:00:51.814 : :Chapter 23
01:17:05.912 : :Chapter 25
01:21:49.529 : :Chapter 27
01:33:07.331 : :Chapter 29
01:46:25.670 : :Chapter 31
01:58:21.844 : :Chapter 33

"x264 log"

x264 [info]: frame I:1145 Avg QP:14.03 size:101308
x264 [info]: frame P:32082 Avg QP:16.44 size: 37740
x264 [info]: frame B:126627 Avg QP:19.94 size: 6636

x264 [info]: consecutive B-frames: 1.6% 2.7% 5.2% 18.2% 16.9% 30.6% 8.6% 10.8% 2.0% 0.7% 0.7% 1.5% 0.5%

x264 [info]: ref P L0: 41.5% 9.4% 18.6% 6.0% 5.9% 3.6% 3.9% 1.7% 1.9% 1.3% 1.5% 1.0% 1.2% 0.8% 1.0% 0.6%
x264 [info]: ref B L0: 71.6% 12.6% 5.2% 2.7% 1.8% 1.6% 1.2% 0.7% 0.6% 0.6% 0.4% 0.4% 0.3% 0.2% 0.1%
x264 [info]: ref B L1: 92.6% 7.4%


Ссылки для скачивания:

http//bt.hqclub.net/files/ok.png Торрент: Охотники за сокровищами / The Monuments Men (2014) BDRip-AVC

Лучшая онлайн игра!


Публикация материалов сайта на сторонних ресурсах возможна только в неизменном виде.


Обсудить релиз на форуме

Вас также может заинтересовать:


  • 3
 (Голосов: 6)


Распечатать новость на принтере Военный, Драма, Комедия

КОММЕНТАРИИ

 №1. ru4lan

Статус: Кинокритик | Новостей: 0 | Комментариев: 2736
ru4lan спасибо за формат и размер!
~~~

19.07.2014 - 17:11   цитировать  

 №2. ru4lan

Статус: Кинокритик | Новостей: 0 | Комментариев: 2736
ru4lan актеры супер, а фильм слабоват, не зацепил
~~~

20.07.2014 - 23:23   цитировать